Torrent HaHa

Free download any torrents what you need
    New Download Links
    Speed
     kbps
     kbps
     kbps

    Delbert McClinton - Room To Breath (2002)

    Category: Music data: 20-12-2015, 20:23
    Rating:
    (votes: 0)

    Delbert McClinton - Room To Breath (2002)
    EAC Rip | FLAC, IMG+CUE, LOG | 287 MB | 42,20 min. | Covers
    Label: New West Records | Rock, Blues-Rock, Country | RAR 3% Rec.

    Delbert McClinton (born 4 November 1940, in Lubbock, Texas) is a Grammy Award-winning singer-songwriter and musician. Active as a side-man since at least 1962 and as a band leader since 1972, he has recorded several major-label albums, and has charted singles on the Billboard Hot 100, Mainstream Rock Tracks, and Hot Country Songs charts. His highest-peaking single was "Tell Me About It", a 1992 duet with Tanya Tucker which reached #4 on the country Charts.
    Wikipedia

    Tracklist

    01. Same Kind Of Crazy
    02. Smooth Talk
    03. Jungle Room
    04. Everything I Know About The Blues
    05. Blues About You Baby
    06. Lone Star Blues
    07. The Rub
    08. Won't Be Me
    09. Don't Want To Love You
    10. Ain't Lost Nothin'
    11. Money Honey
    12. New York City

    Eac Log

    Exact Audio Copy V1.0 beta 1 from 15. November 2010

    EAC extraction logfile from 18. January 2011, 21:01

    Delbert McClinton / Room To Breath

    Used drive : HL-DT-STDVD-RAM GH22NP20 Adapter: 0 ID: 0

    Read mode : Secure
    Utilize accurate stream : Yes
    Defeat audio cache : Yes
    Make use of C2 pointers : No

    Read offset correction : 102
    Overread into Lead-In and Lead-Out : No
    Fill up missing offset samples with silence : Yes
    Delete leading and trailing silent blocks : No
    Null samples used in CRC calculations : Yes
    Used interface : Native Win32 interface for Win NT & 2000

    Used output format : User Defined Encoder
    Selected bitrate : 768 kBit/s
    Quality : High
    Add ID3 tag : No
    Command line compressor : C:Program FilesExact Audio CopyFLACFLAC.EXE
    Additional command line options : -6 -V -T "ARTIST=%a" -T "TITLE=%t" -T "ALBUM=%g" -T "DATE=%y" -T "TRACKNUMBER=%n" -T "GENRE=%m" -T "COMMENT=%e" %j--picture="%i"%j %s -o %d TOC of the extracted CD

    Track | Start | Length | Start sector | End sector
    ---------------------------------------------------------
    1 | 0:00.00 | 4:03.10 | 0 | 18234
    2 | 4:03.10 | 3:50.55 | 18235 | 35539
    3 | 7:53.65 | 3:41.70 | 35540 | 52184
    4 | 11:35.60 | 3:31.50 | 52185 | 68059
    5 | 15:07.35 | 3:00.45 | 68060 | 81604
    6 | 18:08.05 | 3:57.25 | 81605 | 99404
    7 | 22:05.30 | 3:15.47 | 99405 | 114076
    8 | 25:21.02 | 4:04.00 | 114077 | 132376
    9 | 29:25.02 | 3:00.65 | 132377 | 145941
    10 | 32:25.67 | 2:45.08 | 145942 | 158324
    11 | 35:11.00 | 3:35.45 | 158325 | 174494
    12 | 38:46.45 | 3:33.65 | 174495 | 190534 Range status and errors

    Selected range

    Filename C:Delbert McClinton - Room To Breath.wav

    Peak level 100.0 %
    Extraction speed 0.2 X
    Range quality 100.0 %
    Copy CRC 158DF986
    Copy OK

    No errors occurred


    AccurateRip summary

    Track 1 not present in database
    Track 2 not present in database
    Track 3 not present in database
    Track 4 not present in database
    Track 5 not present in database
    Track 6 not present in database
    Track 7 not present in database
    Track 8 not present in database
    Track 9 not present in database
    Track 10 not present in database
    Track 11 not present in database
    Track 12 not present in database

    None of the tracks are present in the AccurateRip database

    End of status report

    Cue Sheet

    REM GENRE "Rock / Country"
    REM DATE 2002
    REM DISCID A709EC0C
    REM COMMENT "ExactAudioCopy v1.0b1"
    PERFORMER "Delbert McClinton"
    TITLE "Room To Breath"
    FILE "Delbert McClinton - Room To Breath.flac" WAVE
    TRACK 01 AUDIO
    TITLE "01 - Same Kind Of Crazy"
    PERFORMER "Delbert McClinton"
    INDEX 01 00:00:00
    TRACK 02 AUDIO
    TITLE "02 - Smooth Talk"
    PERFORMER "Delbert McClinton"
    INDEX 01 04:03:10
    TRACK 03 AUDIO
    TITLE "03 - Jungle Room"
    PERFORMER "Delbert McClinton"
    INDEX 01 07:53:65
    TRACK 04 AUDIO
    TITLE "04 - Everything I Know About The Blues"
    PERFORMER "Delbert McClinton"
    INDEX 01 11:35:60
    TRACK 05 AUDIO
    TITLE "05 - Blues About You Baby"
    PERFORMER "Delbert McClinton"
    INDEX 01 15:07:35
    TRACK 06 AUDIO
    TITLE "06 - Lone Star Blues"
    PERFORMER "Delbert McClinton"
    INDEX 01 18:08:05
    TRACK 07 AUDIO
    TITLE "07 - The Rub"
    PERFORMER "Delbert McClinton"
    INDEX 01 22:05:30
    TRACK 08 AUDIO
    TITLE "08 - Won't Be Me"
    PERFORMER "Delbert McClinton"
    INDEX 01 25:21:02
    TRACK 09 AUDIO
    TITLE "09 - Don't Want To Love You"
    PERFORMER "Delbert McClinton"
    INDEX 01 29:25:02
    TRACK 10 AUDIO
    TITLE "10 - Ain't Lost Nothin'"
    PERFORMER "Delbert McClinton"
    INDEX 01 32:25:67
    TRACK 11 AUDIO
    TITLE "11 - Money Honey"
    PERFORMER "Delbert McClinton"
    INDEX 01 35:11:00
    TRACK 12 AUDIO
    TITLE "12 - New York City"
    PERFORMER "Delbert McClinton"
    INDEX 01 38:46:45




    Free Full Download Delbert McClinton - Room To Breath form MediaFire.com link RapidShare, Uploaded.to, Zippyshare, FileSonic, turbobit.net, ul.to, ORON, DepositFiles, rapidgator.net, letitbit.net, extabit.com, filefactory.com. Delbert McClinton - Room To Breath (2002) Torrent Download with keygen, crack, serial, 1080p, hdrip, 720p, 2015, 2016

    16 Horsepower - Folklore (2002 Glitterhouse # GRCD 560) REPOST


    16 Horsepower - Folklore
    EAC+LOG+CUE | FLAC: 241 MB | Artwork | 5% Recovery Info
    Label/Cat#: Glitterhouse # GRCD 560 | Country/Year: Germany 2002
    Genre: Rock, Folk | Style: Folk Rock, Country Rock
    “"...Although some fans may be disappointed with 16 Horsepower's move away from the frantic drive of the group's older material, this is a landmark in the...

    Eric Sardinas - Black Pearls (2003) JVC VICP-62371


    Eric Sardinas - Black Pearls (2003)
    EAC Rip | FLAC (Img) + Cue + Log ~ 415 Mb | MP3 CBR320 ~ 148 Mb
    Scans Included (JPG, 600 dpi) | RAR 5% Recovery
    Hard Rock, Blues Rock, Modern Electric Blues | JVC #VICP-62371
    “Eric Sardinas is an American blues-rock slide guitarist born in Fort Lauderdale, Florida. He is noted for his use of the electric resonator guitar and his...

    Servi - Meditatio in Variatione (1995) Reissue 2002


    Servi - Meditatio in Variatione (1995) [Reissue 2002]
    EAC Rip | FLAC (tracks+.cue+log) - 268 MB | MP3 CBR 320 kbps (LAME 3.93) - 122 MB | Covers - 129 MB
    Genre: Electronic, Ambient, New Age | RAR 3% Rec. | Label: ServiSound (CD 1.14-95-3)
    “Meditatio in Variatione is the multimedia programme from Servi’s musicians and composers Jan Bilk and Tomaš Nawka. The Sorb...

    Donizetti - Lucie de Lammermoor (Evelino Pido Patrizia Ciofi Roberto Alagna) (2004)


    Donizetti - Lucie de Lammermoor (Evelino Pidò, Patrizia Ciofi, Roberto Alagna) (2004)
    PAL 16:9 (720x576) VBR | Francais (LinearPCM, 2 ch) | (DTS, 6 ch) | (Dolby AC3, 6 ch) | 7.70 Gb (DVD9) | 140 min
    Classical | TDK | Sub: English, Francais, Deutsch, Italiano, Espanol
    “We can thank the Lyon Opera for reviving the long-forgotten French version in January 2002 and it is...

    Earl Wild: Brahms · Sonata in F minor Op. 5 and Other Works Re-up


    Earl Wild: Brahms · Sonata No. 3 in F minor & Other Piano Works
    EAC rip | Flac, IMG+CUE, Log | 421 MB | Full 300 dpi scans | WinRar [5% rec. rec]
    Label: Ivory Classics # 72008 | Rel. 2002 | Rec.: May 5-6, 2002 (Tracks 1-5); 21-Sept-2000 (Tracks 6-11); 22-March-1982 (Track 12)
    “From the notes (Some thoughts on the Sonata): In my 86 years on this planet, I have heard...

    Philip Glass - Music from The Hours (2004) Performed by Michael Riesman


    Philip Glass - Music from 'The Hours' (2004) Performed by Michael Riesman
    EAC | FLAC | Image (Cue&Log) ~ 220 Mb (incl 5%) | Mp3 (CBR320) ~ 171 Mb (incl 5%) | Scans included
    Genre: Classical, Minimalism, Score | Label: Orange Mountain Music | # 0012 | Time: 00:57:25
    “In 2002 Philip Glass composed the soundtrack score to the Stephen Daldry film "The...

    Barbecue Bob & The Spare Ribs - After School Special (2002)


    Barbecue Bob & The Spare Ribs - After School Special (2002)
    EAC Rip | FLAC (Image) + CUE + LOG | 379 MB | Covers Included
    Genre: Blues/Pop/Rock/Blues-Rock | Label: Dada Records | Catalog Number: DR-0028 | Release Date: Oct 1, 2002 | RAR 5% Rec. | RS.com + HF.com
    “This debut album by Barbecue Bob & The Spareribs was recorded live at Coyote Studios in Brooklyn,...

    Ray Conniff - Jean / Bridge Over Troubled Water (2 LP on 1 CD 2002) Re-Up


    Ray Conniff
    Jean / Bridge Over Troubled Water (2 LP on 1 CD , 2002)
    EAC Rip | FLAC+CUE+LOG | 1CD | Scans | 65Min. | 420mb
    Easy Listening Pop /LP Originally released in 1969
    Label: Sony Music Collectables / Catalogue: COL-CD-7457
    “Ray released these two albums in about 1969 and 1970 respectively. The quality and sound are first rate in these CD's. Good...

    Frankie Laine - I Believe (Boxed Set 6CD) (2001)


    Frankie Laine - I Believe (Boxed Set 6CD) (2001)
    MP3 CBR 256kbps | Label: Bear Family, Germany | Release: 2001 | 217:34 min | 626 MB
    Genre: Jazz, Easy Listening, Vocal, Contemporary Blues
    “The 2nd part of Bear Family's Complete Frankie Laine career retrospective follows the great singer and his producer, Mitch Miller, to Columbia Records, where they went together...

    Dolly Parton - Halos And Horns (2002)


    Dolly Parton - Halos And Horns (2002)
    1CD | EAC-Rip | APE-image +cue +log +COVERS | July 9, 2002 | 342,18 Mb
    Genre: Country | RAR 3% Rec. | Label: Sugarhill
    RS.com + HF.com, Turbobit, Sharingmatrix
    Like many musicians profoundly moved by the events of September 11, Dolly Parton reacted to the tragedy by going inward and forging a spiritual journey through songwriting. As...

    Add comment
    Try to express their thoughts correctly and succinctly


Bryan Adams - Discography (1979-2015)
Bryan Adams - Discography 1979-2015 (28 Albums, 52CD+23 Singles) Genre: Rock ||
VA - Masterpieces of Chillout (2015)
Masterpieces of Chillout (2015) Label: Jizoom | Genre: Downtempo, Chillout,
Barrett Baber - The Complete Season 9 Collection (The Voice
Release Name: Barrett Baber - The Complete Season 9 Collection (The Voice
John Williams - Star Wars: The Force Awakens - Original Motion
John Williams - Star Wars: The Force Awakens - Original Motion Picture
The Teacher-Friendly Guide to Climate Change
The Teacher-Friendly Guide to Climate Change by Ingrid H. H. Zabel English |
Clinical Photography in Dentistry
Clinical Photography in Dentistry: A New Perspective Quintessence | English |
Business Statistics
Business Statistics by Richard D. De Veaux English | 23 Jan. 2014 | ISBN:
Surgical Design for Dental Reconstruction with Implants
Surgical Design for Dental Reconstruction with Implants: A New Paradigm
Realtime Landscaping Architect 2016 16.07 180119
Realtime Landscaping Architect 2016 16.07 180119 Realtime Landscaping
Cycles And Spots Ibiza Chill WAV MiDi 180119
Cycles And Spots Ibiza Chill WAV MiDi 180119 Cycles And Spots Ibiza Chill
Cycles And Spots 80s Pop WAV MiDi 180119
Cycles And Spots 80s Pop WAV MiDi 180119 Cycles And Spots 80s Pop WAV MiDi |
Cycles And Spots 90s House WAV MiDi 180119
Cycles And Spots 90s House WAV MiDi 180119 Cycles And Spots 90s House WAV
Abstract oil painting 1 - 5 UHQ JPEG
Abstract oil painting 1 - 5 UHQ JPEG 5 UHQ JPEG | 5760X3840 | 300 DPI | 28 MB
Juice and Fresh UHQ JPG
Juice and Fresh UHQ JPG 10 UHQ JPG | up to 8000x5323 Pixels | 102 Mb
Girl in abstraction - 6 UHQ JPEG
Girl in abstraction - 6 UHQ JPEG 6 UHQ JPEG | 5915X4212 | 300 DPI | 60 MB
Flyer Psd Template - Farmer Flyer Business
Flyer Psd Template - Farmer Flyer Business PSD | 1275x1875 PIX | fontinfo |

Download Torrents. Fast and Free Torrent Downloads.

Not Store Any File In Server. The Links Are Provided Solely By This Site's Users.

If You Have Any Doubts About Legality Of Content, Feel Free To Contact US.
© 2015 - 2016