Torrent HaHa

Free download any torrents what you need
    New Download Links
    Speed
     kbps
     kbps
     kbps

    Johnny Winter - Setlist: The Very Best Of Johnny Winter Live (2011/2013)

    Category: Music data: 20-12-2015, 20:24
    Rating:
    (votes: 10)

    Johnny Winter - Setlist: The Very Best Of Johnny Winter Live (2011/2013)
    EAC | FLAC | Image (Cue&Log) ~ 559 Mb (incl 5%) | Mp3 (CBR320/Stereo) ~ 229 Mb (incl 5%) | Scans included
    Genre: Blues Rock, Blues | Label: Sony Music | # 88883722802 | Time: 01:11:43

    With a fast, gritty, and furious slide and electric guitar style, Johnny Winter fused the blues to its rock nephew and became a white guitar legend (an albino one, no less, further adding to his stage allure) with his albums and live performances in the 1970s. This set collects some of the best of those performances at shows played between 1969 and 1977, including soaring versions of Bob Dylan's "Highway 61 Revisited," the Rolling Stones' "Jumpin' Jack Flash," and Chuck Berry's "Johnny B. Goode," all of which helped set the stage for later guitar slingers like Stevie Ray Vaughan and others.

    Review by Steve Leggett, Allmusic.com




    Tracklist:

    01. Good Morning Little School Girl (04:33)
    02. Johnny B Goode (03:31)
    03. Rock And Roll, Hoochie Koo (04:50)
    04. Mama Talk To Your Daughter (05:06)
    05. Leland Mississippi Blues (04:51)
    06. Roll With Me (04:47)
    07. Highway 61 Revisited (07:03)
    08. It's My Own Fault (11:40)
    09. Jumpin Jack Flash (04:19)
    10. Black Cat Bone (05:38)
    11. Bony Maronie (06:22)
    12. Mean Town Blues (08:57)


    XLD log
    X Lossless Decoder version 20131102 (145.0)

    XLD extraction logfile from 2014-03-07 22:25:43 +0200

    Johnny Winter / Setlist . The Very Best Of Johnny Winter (Live)

    Used drive : MATSHITA DVD-R UJ-898 (revision HC09)
    Media type : Pressed CD

    Ripper mode : XLD Secure Ripper
    Disable audio cache : OK for the drive with a cache less than 1375KiB
    Make use of C2 pointers : NO
    Read offset correction : 102
    Max retry count : 20
    Gap status : Analyzed, Appended

    TOC of the extracted CD
    Track | Start | Length | Start sector | End sector
    ---------------------------------------------------------
    1 | 00:00:00 | 04:33:08 | 0 | 20482
    2 | 04:33:08 | 03:31:13 | 20483 | 36320
    3 | 08:04:21 | 04:50:66 | 36321 | 58136
    4 | 12:55:12 | 05:06:18 | 58137 | 81104
    5 | 18:01:30 | 04:51:12 | 81105 | 102941
    6 | 22:52:42 | 04:47:61 | 102942 | 124527
    7 | 27:40:28 | 07:03:14 | 124528 | 156266
    8 | 34:43:42 | 11:40:69 | 156267 | 208835
    9 | 46:24:36 | 04:19:66 | 208836 | 228326
    10 | 50:44:27 | 05:38:11 | 228327 | 253687
    11 | 56:22:38 | 06:22:38 | 253688 | 282375
    12 | 62:45:01 | 08:57:59 | 282376 | 322709

    AccurateRip Summary (DiscID: 001c9f08-0113a4cf-bd10ce0c)
    Track 01 : OK (v2, confidence 5/5)
    Track 02 : OK (v2, confidence 5/5)
    Track 03 : OK (v2, confidence 5/5)
    Track 04 : OK (v2, confidence 5/5)
    Track 05 : OK (v2, confidence 5/5)
    Track 06 : OK (v2, confidence 5/5)
    Track 07 : OK (v2, confidence 5/5)
    Track 08 : OK (v2, confidence 5/5)
    Track 09 : OK (v2, confidence 5/5)
    Track 10 : OK (v2, confidence 5/5)
    Track 11 : OK (v2, confidence 5/5)
    Track 12 : OK (v2, confidence 5/5)
    ->All tracks accurately ripped.

    All Tracks
    Filename : /Users/Home/Music/my rips/johnny winter-setlist the very best off johnny winter (live)-2011/Johnny Winter-Setlist . The Very Best Of Johnny Winter (Live)-2011.flac
    Album gain : -5.77 dB
    Peak : 1.000000
    CRC32 hash (test run) : 2D3F4EF2
    CRC32 hash : 2D3F4EF2
    CRC32 hash (skip zero) : BA907676
    Statistics
    Read error : 0
    Jitter error (maybe fixed) : 0
    Retry sector count : 0
    Damaged sector count : 0

    Track 01
    Pre-gap length : 00:02:00

    Track gain : -6.53 dB
    Peak : 1.000000
    CRC32 hash (test run) : E9D58EA2
    CRC32 hash : E9D58EA2
    CRC32 hash (skip zero) : F37D1063
    AccurateRip v1 signature : 712E3AC0
    AccurateRip v2 signature : 5877B20E
    ->Accurately ripped (v2, confidence 5/5)
    Statistics
    Read error : 0
    Jitter error (maybe fixed) : 0
    Retry sector count : 0
    Damaged sector count : 0

    Track 02

    Track gain : -6.14 dB
    Peak : 0.884125
    CRC32 hash (test run) : 6673D98C
    CRC32 hash : 6673D98C
    CRC32 hash (skip zero) : 79F4F4D7
    AccurateRip v1 signature : 7C8CC910
    AccurateRip v2 signature : 8200257F
    ->Accurately ripped (v2, confidence 5/5)
    Statistics
    Read error : 0
    Jitter error (maybe fixed) : 0
    Retry sector count : 0
    Damaged sector count : 0

    Track 03

    Track gain : -6.09 dB
    Peak : 0.996094
    CRC32 hash (test run) : ABFD575D
    CRC32 hash : ABFD575D
    CRC32 hash (skip zero) : E293883F
    AccurateRip v1 signature : E03DFE0C
    AccurateRip v2 signature : 0CB2CFF8
    ->Accurately ripped (v2, confidence 5/5)
    Statistics
    Read error : 0
    Jitter error (maybe fixed) : 0
    Retry sector count : 0
    Damaged sector count : 0

    Track 04

    Track gain : -6.01 dB
    Peak : 0.856659
    CRC32 hash (test run) : D9811211
    CRC32 hash : D9811211
    CRC32 hash (skip zero) : 66881729
    AccurateRip v1 signature : B2AB28F0
    AccurateRip v2 signature : FBD4E529
    ->Accurately ripped (v2, confidence 5/5)
    Statistics
    Read error : 0
    Jitter error (maybe fixed) : 0
    Retry sector count : 0
    Damaged sector count : 0

    Track 05

    Track gain : -6.21 dB
    Peak : 1.000000
    CRC32 hash (test run) : EA9F3E77
    CRC32 hash : EA9F3E77
    CRC32 hash (skip zero) : 94000C55
    AccurateRip v1 signature : EE41E235
    AccurateRip v2 signature : 5BECD16D
    ->Accurately ripped (v2, confidence 5/5)
    Statistics
    Read error : 0
    Jitter error (maybe fixed) : 0
    Retry sector count : 0
    Damaged sector count : 0

    Track 06

    Track gain : -5.23 dB
    Peak : 1.000000
    CRC32 hash (test run) : B71BCE3B
    CRC32 hash : B71BCE3B
    CRC32 hash (skip zero) : CA93AE79
    AccurateRip v1 signature : 65DA6F65
    AccurateRip v2 signature : E12FEB14
    ->Accurately ripped (v2, confidence 5/5)
    Statistics
    Read error : 0
    Jitter error (maybe fixed) : 0
    Retry sector count : 0
    Damaged sector count : 0

    Track 07

    Track gain : -6.75 dB
    Peak : 0.989990
    CRC32 hash (test run) : A3BEBF9F
    CRC32 hash : A3BEBF9F
    CRC32 hash (skip zero) : E0DC1C59
    AccurateRip v1 signature : AADDEE9E
    AccurateRip v2 signature : ED0D7A8D
    ->Accurately ripped (v2, confidence 5/5)
    Statistics
    Read error : 0
    Jitter error (maybe fixed) : 0
    Retry sector count : 0
    Damaged sector count : 0

    Track 08

    Track gain : -3.28 dB
    Peak : 0.960419
    CRC32 hash (test run) : A9ADB010
    CRC32 hash : A9ADB010
    CRC32 hash (skip zero) : ED3E1EF4
    AccurateRip v1 signature : C2E72AF2
    AccurateRip v2 signature : 79F77BCB
    ->Accurately ripped (v2, confidence 5/5)
    Statistics
    Read error : 0
    Jitter error (maybe fixed) : 0
    Retry sector count : 0
    Damaged sector count : 0

    Track 09

    Track gain : -3.90 dB
    Peak : 0.916443
    CRC32 hash (test run) : 6A3A30EA
    CRC32 hash : 6A3A30EA
    CRC32 hash (skip zero) : 1A7E608D
    AccurateRip v1 signature : 9CDE1F18
    AccurateRip v2 signature : 83F39F07
    ->Accurately ripped (v2, confidence 5/5)
    Statistics
    Read error : 0
    Jitter error (maybe fixed) : 0
    Retry sector count : 0
    Damaged sector count : 0

    Track 10

    Track gain : -6.73 dB
    Peak : 0.930878
    CRC32 hash (test run) : 8C5D7285
    CRC32 hash : 8C5D7285
    CRC32 hash (skip zero) : EDC79245
    AccurateRip v1 signature : A5F92037
    AccurateRip v2 signature : 16F2DE47
    ->Accurately ripped (v2, confidence 5/5)
    Statistics
    Read error : 0
    Jitter error (maybe fixed) : 0
    Retry sector count : 0
    Damaged sector count : 0

    Track 11

    Track gain : -4.71 dB
    Peak : 0.999969
    CRC32 hash (test run) : 92682B48
    CRC32 hash : 92682B48
    CRC32 hash (skip zero) : DBC5126C
    AccurateRip v1 signature : 23217351
    AccurateRip v2 signature : F6928200
    ->Accurately ripped (v2, confidence 5/5)
    Statistics
    Read error : 0
    Jitter error (maybe fixed) : 0
    Retry sector count : 0
    Damaged sector count : 0

    Track 12

    Track gain : -5.24 dB
    Peak : 1.000000
    CRC32 hash (test run) : A0FE933F
    CRC32 hash : A0FE933F
    CRC32 hash (skip zero) : 85C0597B
    AccurateRip v1 signature : 10E6C8A5
    AccurateRip v2 signature : 0B85C5C3
    ->Accurately ripped (v2, confidence 5/5)
    Statistics
    Read error : 0
    Jitter error (maybe fixed) : 0
    Retry sector count : 0
    Damaged sector count : 0

    No errors occurred

    End of status report

    DR log
    foobar2000 1.2 / Dynamic Range Meter 1.1.1
    log date: 2014-03-12 15:13:51

    --------------------------------------------------------------------------------
    Analyzed: Johnny Winter / Setlist . The Very Best Of Johnny Winter (Live)
    --------------------------------------------------------------------------------

    DR Peak RMS Duration Track
    --------------------------------------------------------------------------------
    DR10 0.00 dB -11.72 dB 4:33 01-Good Morning Little School Girl
    DR9 -1.07 dB -11.31 dB 3:31 02-Johnny B Goode
    DR10 -0.03 dB -11.72 dB 4:51 03-Rock And Roll, Hoochie Koo
    DR9 -1.34 dB -11.80 dB 5:06 04-Mama Talk To Your Daughter
    DR10 0.00 dB -10.91 dB 4:51 05-Leland Mississippi Blues
    DR12 0.00 dB -13.21 dB 4:48 06-Roll With Me
    DR10 -0.09 dB -11.62 dB 7:03 07-Highway 61 Revisited
    DR12 -0.35 dB -15.26 dB 11:41 08-It's My Own Fault
    DR11 -0.76 dB -12.88 dB 4:20 09-Jumpin Jack Flash
    DR10 -0.62 dB -11.71 dB 5:38 10-Black Cat Bone
    DR12 0.00 dB -14.17 dB 6:23 11-Bony Maronie
    DR12 0.00 dB -13.54 dB 8:58 12-Mean Town Blues
    --------------------------------------------------------------------------------

    Number of tracks: 12
    Official DR value: DR11

    Samplerate: 44100 Hz
    Channels: 2
    Bits per sample: 16
    Bitrate: 934 kbps
    Codec: FLAC
    ================================================================================







    Free Full Download Johnny Winter - Setlist: The Very form MediaFire.com link RapidShare, Uploaded.to, Zippyshare, FileSonic, turbobit.net, ul.to, ORON, DepositFiles, rapidgator.net, letitbit.net, extabit.com, filefactory.com. Johnny Winter - Setlist: The Very Best Of Johnny Winter Live (2011/2013) Torrent Download with keygen, crack, serial, 1080p, hdrip, 720p, 2015, 2016

    Beth Hart & Joe Bonamassa - Dont Explain


    Beth Hart & Joe Bonamassa - Don't Explain
    FLAC | image + cue | EAC log | scans | 361 Mb (5% recov.)
    blues-rock | Filesonic, Hotfile, Wupload | 2011
    J*R Adventures (PRAR931391)
    “Joe Bonamassa is a very busy man. In March he released his latest solo album Dust Bowl and in June his band Black Country Communion released 2, arguably the best rock album of the...

    VA - Nighttime Lovers 13-20: A Fine Collection of Disco Funk Classics of the 80s (2011-2014)


    VA - Nighttime Lovers 13-20: A Fine Collection of Disco Funk Classics of the 80's (2011-2014)
    Disco, Funk, Soul, RnB | MP3 320 kbps CBR | 9 hours | 1.29 MB
    Label: PTG Records | Rel: 2011-2014
    An indispensable thing for stylish and not so "Party" and even "Aftherparty" cognac, whiskey, sex ... that someone like, and "Nighttime Lovers"....

    Griffes: Piano Music - Garrick Ohlsson (2013)


    Griffes: Piano Music - Garrick Ohlsson (2013)
    Classical | MP3 320kbps CBR | 1 CD | 187 MB
    Label: Hyperion | Catalog Number: 67907 | Rls.date: 29th April 2013
    The American composer Charles Tomlinson Griffes’s piano works represent a remarkable musical achievement. Griffes was active as a composer for little more than twelve years, and did not write prolifically, but...

    The Salsoul Orchestra - Nice N Naasty (1976) 2013 Big Break Records Remaster


    The Salsoul Orchestra - Nice 'N' Naasty (1976) {2013 Big Break Records Remaster}
    EAC rip (secure mode) | FLAC (tracks)+CUE+LOG -> 528 Mb | MP3 @320 -> 180 Mb
    Full Artwork @ 300 dpi (png) -> 57 Mb | 5% repair rar
    © 2013 Big Break Records / Cherry Red / Verse Music | CDBBR 0234
    R'n'B / Funk / Disco / Philly Soul
    “THE SALSOUL...

    Johnny Cash - Come Along And Ride This Train (1991) 4CD Box Bear Family BCD 15563


    Johnny Cash - Come Along And Ride This Train (1991) [4CD Box, Bear Family BCD 15563]
    Country | EAC Rip | Flac(Image) + Cue + Log | MP3 CBR 320Kbps | Covers -> 21 Mb
    Bear Family Records | BCD 15563 | ~1456 + 687 Mb | FileSonic, HotFile
    “It's a statement of Johnny Cash's longevity that the eight albums collected here -- each one a concept collection devoted...

    Sue Foley - Change (2004)


    Sue Foley - Change (2004)
    EAC Rip | FLAC (Image) + CUE + LOG | 337 MB | Covers Included
    Genre: Blues | Label: Ruf | Catalog Number: 1096 | Release Date: Aug 24, 2004 | RAR 5% Rec. | RS.com + HF.com
    “Unplugged, but electrifying nonetheless, Canada-based blueswoman Sue Foley's first live disc was recorded in one take with a band that hadn't rehearsed the set....

    Andy Williams - Original Album Collection Vol. 1 (2013) Mini LP 8 CD Box Set


    Andy Williams - Original Album Collection Vol. 1 (2013) Mini LP 8 CD Box Set
    EAC | FLAC | Image (Cue&Log) ~ 2.11 Gb | Mp3 (CBR320) ~ 1.01 Mb | Scans ~ 351 Mb
    Genre: Easy Listening, Vocal Pop, Traditional Pop | Label: Sony Music | # SICP-3742~9 | Time: 04:36:02
    “Japanese original release. First box set of Andy Williams includes seven original albums "Canadian...

    Johnny Mastro & Mamas Boys - Lukes Dream (2012)


    Johnny Mastro & Mama's Boys - Luke's Dream (2012)
    EAC Rip | FLAC (image+.cue+log) - 401 MB | MP3 CBR 320 kbps (LAME 3.93) - 146 MB | Covers included
    Genre: Blues | RAR 3% Rec. | Label: Rip Cat Records (RIC 1109)
    “Johnny Mastro And The Mama's Boys follow up their genre stretching Beautiful Chaos with a step further on down the path of experimental...

    Add comment
    Try to express their thoughts correctly and succinctly


Bryan Adams - Discography (1979-2015)
Bryan Adams - Discography 1979-2015 (28 Albums, 52CD+23 Singles) Genre: Rock ||
VA - Masterpieces of Chillout (2015)
Masterpieces of Chillout (2015) Label: Jizoom | Genre: Downtempo, Chillout,
Barrett Baber - The Complete Season 9 Collection (The Voice
Release Name: Barrett Baber - The Complete Season 9 Collection (The Voice
John Williams - Star Wars: The Force Awakens - Original Motion
John Williams - Star Wars: The Force Awakens - Original Motion Picture
1.e4 vs The Sicilian II
Parimarjan Negi, "1.e4 vs The Sicilian II" 2016 | ISBN-10: 1907982574 | 400
Introductory Digital Image Processing: A Remote Sensing
Introductory Digital Image Processing: A Remote Sensing Perspective, 4th
Shackelford's Surgery of the Alimentary Tract, 2 Volume Set, 8e
Shackelford's Surgery of the Alimentary Tract, 2 Volume Set, 8e 2018 | ISBN:
Adobe Premiere Pro CS6 Classroom in a Book
Adobe Premiere Pro CS6 Classroom in a Book Published: 2012-07-19 | ISBN:
NVIDIA GeForce Experience 2.11.2.49 Beta / 2.11.2.46 Final 180422
NVIDIA GeForce Experience 2.11.2.49 Beta / 2.11.2.46 Final 180422 NVIDIA
Wonderware InduSoft Web Studio 8.0 180422
Wonderware InduSoft Web Studio 8.0 180422 Wonderware InduSoft Web Studio 8.0
Zoom Player PRO 10.0.0.100 Final 180422
Zoom Player PRO 10.0.0.100 Final 180422 Zoom Player PRO 10.0.0.100 Final |
MacCleanse 5.0.0 | MacOSX 180422
MacCleanse 5.0.0 | MacOSX 180422 MacCleanse 5.0.0 | MacOSX | 24 MB
Abstract oil painting 1 - 5 UHQ JPEG
Abstract oil painting 1 - 5 UHQ JPEG 5 UHQ JPEG | 5760X3840 | 300 DPI | 28 MB
Juice and Fresh UHQ JPG
Juice and Fresh UHQ JPG 10 UHQ JPG | up to 8000x5323 Pixels | 102 Mb
Girl in abstraction - 6 UHQ JPEG
Girl in abstraction - 6 UHQ JPEG 6 UHQ JPEG | 5915X4212 | 300 DPI | 60 MB
Flyer Psd Template - Farmer Flyer Business
Flyer Psd Template - Farmer Flyer Business PSD | 1275x1875 PIX | fontinfo |

Download Torrents. Fast and Free Torrent Downloads.

Not Store Any File In Server. The Links Are Provided Solely By This Site's Users.

If You Have Any Doubts About Legality Of Content, Feel Free To Contact US.
© 2015 - 2016