Torrent HaHa

Free download any torrents what you need
    New Download Links
    Speed
     kbps
     kbps
     kbps

    The Salsoul Orchestra - Nice N Naasty (1976) 2013 Big Break Records Remaster

    Category: Music data: 20-12-2015, 20:24
    Rating:
    (votes: 0)

    The Salsoul Orchestra - Nice 'N' Naasty (1976) {2013 Big Break Records Remaster}
    EAC rip (secure mode) | FLAC (tracks)+CUE+LOG -> 528 Mb | MP3 @320 -> 180 Mb
    Full Artwork @ 300 dpi (png) -> 57 Mb | 5% repair rar
    © 2013 Big Break Records / Cherry Red / Verse Music | CDBBR 0234
    R'n'B / Funk / Disco / Philly Soul

    THE SALSOUL ORCHESTRA was the brainchild of once MFSB member and legendary vibraphonist, Vince Montana Jr. Formed in 1974 THE SALSOUL ORCHESTRA, house band for the remarkable Salsoul Records, sometimes featured up to 50 members amongst its ranks including a number of former musicians from MFSB of the Gamble & Huff fronted Philadelphia International Records and fused elements of Funk, Latin, Disco and Philly Soul into their compositions.


    Conducted by Montana, THE SALSOUL ORCHESTRA began an eight-year recording period in 1975 releasing eleven sensational albums during that time featuring production input from Tom Moulton, Stan Lucas, Patrick Adams and Bunny Sigler through the years.
    BBR is proud to bring you the second instalment of our Salsoul Orchestra reissues – The Salsoul Orchestra - Nice & Naasty. Recorded at the famous Sigma Sound Studios in Philadelphia with production and much of writing being tended to by Vince Montana Jr., Nice & Naasty also features some great musicianship from greats like Bobby Eli, Ron Kersey, Norman Harris and Ron Baker.
    Standout tracks include the title single, which achieved a highly impressive #61 on the Billboard Hot 100 chart and Ritzy Mambo, which also achieved a spot on the highly coveted singles chart. The album itself accomplished a solid #30 position on the US Pop Album chart.
    This newly remastered, fully expanded edition comes packaged complete with extensive liner notes and added bonus content making this BBR Remaster a must have for all Funk, Soul, Disco, R&B and Philly Soul fans out there!


    BBR INFO

    tracklist:
    01. GOOD FOR THE SOUL
    02. NICE ‘N’ NAASTY
    03. IT DON’T HAVE TO BE FUNKY (TO BE A GROOVE
    04. NIGHTCRAWLER
    05. DON’T BEAT AROUND THE BUSH
    06. STANDING AND WAITING ON LOVE
    07. SALSOUL 3001
    08. WE’VE ONLY JUST BEGUN/FEELINGS
    09. RITZY MAMBO
    10. JACK AND JILL

    BONUS TRACKS
    11. NICE ‘N’ NAASTY (12” Disco Mix)
    12. IT DON’T HAVE TO BE FUNKY (TO BE A GROOVE (12” Disco Mix)
    13. RITZY MAMBO (12" DISCO MIX)
    14. IT'S GOOD FOR THE SOUL (12” Disco Mix)
    15. NICE 'N' NAASTY (SINGLE VERSION)

    EAC log
    Exact Audio Copy V1.0 beta 3 from 29. August 2011

    EAC extraction logfile from 24. September 2013, 14:12

    The Salsoul Orchestra / Nice 'N' Naasty

    Used drive : TSSTcorp CDDVDW Adapter: 0 ID: 0

    Read mode : Secure
    Utilize accurate stream : Yes
    Defeat audio cache : Yes
    Make use of C2 pointers : No

    Read offset correction : 6
    Overread into Lead-In and Lead-Out : No
    Fill up missing offset samples with silence : Yes
    Delete leading and trailing silent blocks : No
    Null samples used in CRC calculations : Yes
    Used interface : Native Win32 interface for Win NT & 2000
    Gap handling : Appended to previous track

    Used output format : User Defined Encoder
    Selected bitrate : 128 kBit/s
    Quality : High
    Add ID3 tag : No
    Command line compressor : C:Program Files (x86)Exact Audio CopyFlacflac.exe
    Additional command line options : -8 -V -T "ARTIST=%artist%" -T "TITLE=%title%" -T "ALBUM=%albumtitle%" -T "DATE=%year%" -T "TRACKNUMBER=%tracknr%" -T "TOTALTRACKS=%numtracks%" -T "GENRE=%genre%" -T "ALBUMARTIST=%albumartist%" -T "ALBUM ARTIST=%albumartist%" -T "COMMENT=EAC Secure Mode, Test & Copy, AccurateRip, FLAC -8" %source% TOC of the extracted CD

    Track | Start | Length | Start sector | End sector
    ---------------------------------------------------------
    1 | 0:00.00 | 4:35.20 | 0 | 20644
    2 | 4:35.20 | 4:47.64 | 20645 | 42233
    3 | 9:23.09 | 4:52.00 | 42234 | 64133
    4 | 14:15.09 | 4:23.18 | 64134 | 83876
    5 | 18:38.27 | 5:02.45 | 83877 | 106571
    6 | 23:40.72 | 3:40.48 | 106572 | 123119
    7 | 27:21.45 | 6:38.60 | 123120 | 153029
    8 | 34:00.30 | 5:17.12 | 153030 | 176816
    9 | 39:17.42 | 4:47.44 | 176817 | 198385
    10 | 44:05.11 | 0:17.36 | 198386 | 199696
    11 | 44:22.47 | 5:23.06 | 199697 | 223927
    12 | 49:45.53 | 7:48.49 | 223928 | 259076
    13 | 57:34.27 | 7:41.11 | 259077 | 293662
    14 | 65:15.38 | 7:07.42 | 293663 | 325729
    15 | 72:23.05 | 3:42.47 | 325730 | 342426 Track 1

    Filename C:1 - It's Good For The Soul.wav

    Pre-gap length 0:00:02.00

    Peak level 96.6 %
    Extraction speed 2.9 X
    Track quality 100.0 %
    Test CRC DEDE18D3
    Copy CRC DEDE18D3
    Track not present in AccurateRip database
    Copy OK

    Track 2

    Filename C:2 - Nice 'N' Naasty.wav

    Pre-gap length 0:00:01.61

    Peak level 96.6 %
    Extraction speed 2.7 X
    Track quality 99.9 %
    Test CRC 320B5198
    Copy CRC 320B5198
    Track not present in AccurateRip database
    Copy OK

    Track 3

    Filename C:3 - It Don't Have To Be Funky (To Be A Groove).wav

    Pre-gap length 0:00:01.45

    Peak level 96.6 %
    Extraction speed 3.6 X
    Track quality 100.0 %
    Test CRC B6DF1205
    Copy CRC B6DF1205
    Track not present in AccurateRip database
    Copy OK

    Track 4

    Filename C:4 - Nightcrawler.wav

    Pre-gap length 0:00:01.51

    Peak level 96.6 %
    Extraction speed 3.1 X
    Track quality 99.9 %
    Test CRC E44BBAAC
    Copy CRC E44BBAAC
    Track not present in AccurateRip database
    Copy OK

    Track 5

    Filename C:5 - Don't Beat Around The Bush.wav

    Pre-gap length 0:00:01.55

    Peak level 96.6 %
    Extraction speed 4.1 X
    Track quality 100.0 %
    Test CRC 54524D9E
    Copy CRC 54524D9E
    Track not present in AccurateRip database
    Copy OK

    Track 6

    Filename C:6 - Standing And Waiting On Love.wav

    Pre-gap length 0:00:01.43

    Peak level 96.6 %
    Extraction speed 4.1 X
    Track quality 100.0 %
    Test CRC EC41BC70
    Copy CRC EC41BC70
    Track not present in AccurateRip database
    Copy OK

    Track 7

    Filename C:7 - Salsoul 3001.wav

    Pre-gap length 0:00:01.70

    Peak level 96.6 %
    Extraction speed 4.7 X
    Track quality 100.0 %
    Test CRC 126AF0E2
    Copy CRC 126AF0E2
    Track not present in AccurateRip database
    Copy OK

    Track 8

    Filename C:8 - We've Only Just Begun , Feelings.wav

    Pre-gap length 0:00:01.70

    Peak level 96.6 %
    Extraction speed 4.8 X
    Track quality 100.0 %
    Test CRC 70092709
    Copy CRC 70092709
    Track not present in AccurateRip database
    Copy OK

    Track 9

    Filename C:9 - Ritzy Mambo.wav

    Pre-gap length 0:00:01.68

    Peak level 96.6 %
    Extraction speed 5.0 X
    Track quality 100.0 %
    Test CRC EC4EB9BF
    Copy CRC EC4EB9BF
    Track not present in AccurateRip database
    Copy OK

    Track 10

    Filename C:10 - Jack And Jill.wav

    Pre-gap length 0:00:01.44

    Peak level 96.6 %
    Extraction speed 1.7 X
    Track quality 100.0 %
    Test CRC D493B632
    Copy CRC D493B632
    Track not present in AccurateRip database
    Copy OK

    Track 11

    Filename C:11 - Nice 'N' Naasty (12' Disco Mix).wav

    Pre-gap length 0:00:03.70

    Peak level 96.6 %
    Extraction speed 5.3 X
    Track quality 100.0 %
    Test CRC 5A9E9EE7
    Copy CRC 5A9E9EE7
    Track not present in AccurateRip database
    Copy OK

    Track 12

    Filename C:12 - It Don't Have To Be Funky (To Be A Groove ) (12' Disco Mix).wav

    Pre-gap length 0:00:01.64

    Peak level 96.6 %
    Extraction speed 5.7 X
    Track quality 100.0 %
    Test CRC 8C0A4FA4
    Copy CRC 8C0A4FA4
    Track not present in AccurateRip database
    Copy OK

    Track 13

    Filename C:13 - Ritzy Mambo (12' Disco Mix).wav

    Pre-gap length 0:00:01.54

    Peak level 96.6 %
    Extraction speed 5.3 X
    Track quality 99.9 %
    Test CRC 7EA595F3
    Copy CRC 7EA595F3
    Track not present in AccurateRip database
    Copy OK

    Track 14

    Filename C:14 - It's Good For The Soul (12' Disco Mix).wav

    Pre-gap length 0:00:01.24

    Peak level 96.6 %
    Extraction speed 6.2 X
    Track quality 100.0 %
    Test CRC F7ACFEF6
    Copy CRC F7ACFEF6
    Track not present in AccurateRip database
    Copy OK

    Track 15

    Filename C:15 - Nice 'N' Naasty (Single Version).wav

    Pre-gap length 0:00:01.63

    Peak level 96.6 %
    Extraction speed 5.9 X
    Track quality 100.0 %
    Test CRC E832C337
    Copy CRC E832C337
    Track not present in AccurateRip database
    Copy OK None of the tracks are present in the AccurateRip database

    No errors occurred

    End of status report

    ==== Log checksum E588F817ACD925905D98CE44D847C031D4015BB1C2128816C31306C69C968083 ====





    All thanks goes to the original releaser!



    NEXT -> More Big Break Records Remaster...



    Free Full Download The Salsoul Orchestra - Nice N form MediaFire.com link RapidShare, Uploaded.to, Zippyshare, FileSonic, turbobit.net, ul.to, ORON, DepositFiles, rapidgator.net, letitbit.net, extabit.com, filefactory.com. The Salsoul Orchestra - Nice N Naasty (1976) 2013 Big Break Records Remaster Torrent Download with keygen, crack, serial, 1080p, hdrip, 720p, 2015, 2016

    Tommy Emmanuel & Frank Vignola - Just Between Frets (2009)


    Tommy Emmanuel & Frank Vignola - Just Between Frets (2009)
    MP3 HQ 320 kbps | front cover | 00:53:30 | 109 MB (+3%)
    Acoustic Jazz/Blues/Swing, Instrumental | Label: Solid Air Records
    Twice Grammy nominated Tommy Emmanuel and Americas own Jazz sensation Frank Vignola turn many a well known tune inside out with their virtuosity and unique chemistry. This don't miss CD...

    Frankie Laine - I Believe (Boxed Set 6CD) (2001)


    Frankie Laine - I Believe (Boxed Set 6CD) (2001)
    MP3 CBR 256kbps | Label: Bear Family, Germany | Release: 2001 | 217:34 min | 626 MB
    Genre: Jazz, Easy Listening, Vocal, Contemporary Blues
    “The 2nd part of Bear Family's Complete Frankie Laine career retrospective follows the great singer and his producer, Mitch Miller, to Columbia Records, where they went together...

    VA - Best Of Bossa Lounge 2 2CD (2010)


    VA - Best Of Bossa Lounge 2 2CD
    Lo-Fi, Lounge, Jazzy, Bossa | mp3 190.8kbps avg | Playtime: 152:32 min | Size: 208,5 MB
    Label: Chet Records | Tracks: 40 | Rls.date: 2010-12-01
    Finest selection of 40 great Classics of Pop History in a Bossa style! - Excellent versions of world hits by Madonna, Sade, Tears For Fears, INXS, U2, Michael Jackson, Rolling Stones, Rod Stewart, Human...

    Jes - Into The Dawn (The Hits Disconnected) 2008


    Jes - Into The Dawn (The Hits Disconnected)
    Chillout, Downtempo, Vocal | MP3 | 320 kbps / 44.1 KHz / Stereo
    Publisher: TME/Open Gate Records | 2008 | 125 Mb (Rar 3% Recovery)
    RapidShare, LetItBit, TurboBit, Vip-File, Sms4file...

    Andy Williams - Original Album Collection Vol. 1 (2013) Mini LP 8 CD Box Set


    Andy Williams - Original Album Collection Vol. 1 (2013) Mini LP 8 CD Box Set
    EAC | FLAC | Image (Cue&Log) ~ 2.11 Gb | Mp3 (CBR320) ~ 1.01 Mb | Scans ~ 351 Mb
    Genre: Easy Listening, Vocal Pop, Traditional Pop | Label: Sony Music | # SICP-3742~9 | Time: 04:36:02
    “Japanese original release. First box set of Andy Williams includes seven original albums "Canadian...

    The Love Unlimited Orchestra (Barry White) - Rhapsody In White (1974)


    The Love Unlimited Orchestra (Barry White) - Rhapsody In White (1974)
    EAC | FLAC | Image (Cue&Log) ~ 265 Mb (incl 5%) | Mp3 (CBR320) ~ 110 Mb (incl 5%) | Scans included
    Genre: Funk, Disco, Soul, Jazz-Funk | Label: Mercury | # 314 558 201-2 | Time: 00:38:54
    “The press may have dubbed Barry White "the walrus of love," but he was certainly the guru of...

    Delbert McClinton - Room To Breath (2002)


    Delbert McClinton - Room To Breath (2002)
    EAC Rip | FLAC, IMG+CUE, LOG | 287 MB | 42,20 min. | Covers
    Label: New West Records | Rock, Blues-Rock, Country | RAR 3% Rec.
    “Delbert McClinton (born 4 November 1940, in Lubbock, Texas) is a Grammy Award-winning singer-songwriter and musician. Active as a side-man since at least 1962 and as a band leader since 1972, he has...

    Johnny Mastro & Mamas Boys - Lukes Dream (2012)


    Johnny Mastro & Mama's Boys - Luke's Dream (2012)
    EAC Rip | FLAC (image+.cue+log) - 401 MB | MP3 CBR 320 kbps (LAME 3.93) - 146 MB | Covers included
    Genre: Blues | RAR 3% Rec. | Label: Rip Cat Records (RIC 1109)
    “Johnny Mastro And The Mama's Boys follow up their genre stretching Beautiful Chaos with a step further on down the path of experimental...

    Add comment
    Try to express their thoughts correctly and succinctly


Bryan Adams - Discography (1979-2015)
Bryan Adams - Discography 1979-2015 (28 Albums, 52CD+23 Singles) Genre: Rock ||
VA - Masterpieces of Chillout (2015)
Masterpieces of Chillout (2015) Label: Jizoom | Genre: Downtempo, Chillout,
Barrett Baber - The Complete Season 9 Collection (The Voice
Release Name: Barrett Baber - The Complete Season 9 Collection (The Voice
John Williams - Star Wars: The Force Awakens - Original Motion
John Williams - Star Wars: The Force Awakens - Original Motion Picture
The Teacher-Friendly Guide to Climate Change
The Teacher-Friendly Guide to Climate Change by Ingrid H. H. Zabel English |
Clinical Photography in Dentistry
Clinical Photography in Dentistry: A New Perspective Quintessence | English |
Business Statistics
Business Statistics by Richard D. De Veaux English | 23 Jan. 2014 | ISBN:
Surgical Design for Dental Reconstruction with Implants
Surgical Design for Dental Reconstruction with Implants: A New Paradigm
Realtime Landscaping Architect 2016 16.07 180119
Realtime Landscaping Architect 2016 16.07 180119 Realtime Landscaping
Cycles And Spots Ibiza Chill WAV MiDi 180119
Cycles And Spots Ibiza Chill WAV MiDi 180119 Cycles And Spots Ibiza Chill
Cycles And Spots 80s Pop WAV MiDi 180119
Cycles And Spots 80s Pop WAV MiDi 180119 Cycles And Spots 80s Pop WAV MiDi |
Cycles And Spots 90s House WAV MiDi 180119
Cycles And Spots 90s House WAV MiDi 180119 Cycles And Spots 90s House WAV
Abstract oil painting 1 - 5 UHQ JPEG
Abstract oil painting 1 - 5 UHQ JPEG 5 UHQ JPEG | 5760X3840 | 300 DPI | 28 MB
Juice and Fresh UHQ JPG
Juice and Fresh UHQ JPG 10 UHQ JPG | up to 8000x5323 Pixels | 102 Mb
Girl in abstraction - 6 UHQ JPEG
Girl in abstraction - 6 UHQ JPEG 6 UHQ JPEG | 5915X4212 | 300 DPI | 60 MB
Flyer Psd Template - Farmer Flyer Business
Flyer Psd Template - Farmer Flyer Business PSD | 1275x1875 PIX | fontinfo |

Download Torrents. Fast and Free Torrent Downloads.

Not Store Any File In Server. The Links Are Provided Solely By This Site's Users.

If You Have Any Doubts About Legality Of Content, Feel Free To Contact US.
© 2015 - 2016