Torrent HaHa

Free download any torrents what you need
    New Download Links
    Speed
     kbps
     kbps
     kbps

    Ray Conniff - The Singles Collection Volume 1 (2005) RE-UP

    Category: Music data: 20-12-2015, 20:24
    Rating:
    (votes: 10)

    Ray Conniff
    The Singles Collection, Volume 1 (2005)

    EAC Rip | FLAC-TRACKS+CUE+LOG | ADD Stereo | 1CD | SCANS | 68 Min | 423 MB
    Label: Sony Music Collectables |Catalogue : COL-CD-7697
    Easy Listening / Pop

    I never imagined this would come true: A CD with a good selection of Ray Conniff's unique singles. I had all these tunes in vynil, most of them in hissy mono. Now, Collectables gives us this present, a wonderful newly remastered Stereo CD.


    These songs are almost unknown, but I'm sure anyone wouldn´t be disappointed with them. My favorites are: "WHERE WERE YOU", a beautiful Brazilian song by Marcos & Paulo Sergio Valle and "WE MUST FORGET WE EVER MET". This was a turning point in Ray's carrer when he said goodbye to the old 25 Singers group and introduced great Singers like Tom & John Bahler, Jackie Ward, Ron Hicklin, Sally Stevens, etc. That was a great sound, much more contemporary but still keeping Ray's quality standards


    Track Listings:

    1. How Am I to Know?
    2. Wonderful Season of Summer
    3. It Takes Two
    4. Games That Lovers Play
    5. Moonlight Brings Memories
    6. We're a Home
    7. A Certain Girl
    8. Look Homeward Angel
    9. I've Got My Eyes On You
    10. Dear World
    11. Love Made a Fool of Me
    12. La Felicidad (The Happiness)
    13. These Are My Flowers
    14. Songs Are for Lovers
    15. Half and Half (Song for Sarah)
    16. A Walk in the Spring Rain
    17. Loss of Love
    18. Rosa (Rosé Nei Buio)
    19. Out of the Darkness (Into the Light)
    20. Where Were You
    21. We Must Forget We Ever Met
    22. Sleepy Shores
    23. Face on the Wind
    24. A Man Without a Vision
    25. Sing Along Song
    26. I Understand (Just How You Feel)

    EAC LOG

    Exact Audio Copy V1.0 beta 3 from 29. August 2011

    EAC extraction logfile from 26. October 2013, 10:42

    Ray Conniff / The Singles Collection, Volume 1

    Used drive : SONY DVD RW DRU-840A Adapter: 0 ID: 1

    Read mode : Secure
    Utilize accurate stream : Yes
    Defeat audio cache : Yes
    Make use of C2 pointers : No

    Read offset correction : 6
    Overread into Lead-In and Lead-Out : No
    Fill up missing offset samples with silence : Yes
    Delete leading and trailing silent blocks : No
    Null samples used in CRC calculations : Yes
    Used interface : Native Win32 interface for Win NT & 2000
    Gap handling : Not detected, thus appended to previous track

    Used output format : User Defined Encoder
    Selected bitrate : 320 kBit/s
    Quality : High
    Add ID3 tag : No
    Command line compressor : C:Archivos de programaExact Audio CopyFLACFLAC.EXE
    Additional command line options : -6 -V -T "ARTIST=%artist%" -T "TITLE=%title%" -T "ALBUM=%albumtitle%" -T "DATE=%year%" -T "TRACKNUMBER=%tracknr%" -T "GENRE=%genre%" -T "COMMENT=%comment%" -T "BAND=%albuminterpret%" -T "ALBUMARTIST=%albuminterpret%" -T "COMPOSER=%composer%" %haslyrics%--tag-from-file=LYRICS="%lyricsfile%"%haslyrics% -T "DISCNUMBER=%cdnumber%" -T "TOTALDISCS=%totalcds%" -T "TOTALTRACKS=%numtracks%" %hascover%--picture="%coverfile%"%hascover% %source% -o %dest% TOC of the extracted CD

    Track | Start | Length | Start sector | End sector
    ---------------------------------------------------------
    1 | 0:00.00 | 2:41.57 | 0 | 12131
    2 | 2:41.57 | 1:59.25 | 12132 | 21081
    3 | 4:41.07 | 2:20.15 | 21082 | 31596
    4 | 7:01.22 | 2:19.25 | 31597 | 42046
    5 | 9:20.47 | 2:24.73 | 42047 | 52919
    6 | 11:45.45 | 2:01.45 | 52920 | 62039
    7 | 13:47.15 | 2:09.15 | 62040 | 71729
    8 | 15:56.30 | 2:35.72 | 71730 | 83426
    9 | 18:32.27 | 3:17.23 | 83427 | 98224
    10 | 21:49.50 | 2:27.00 | 98225 | 109249
    11 | 24:16.50 | 2:56.50 | 109250 | 122499
    12 | 27:13.25 | 3:01.67 | 122500 | 136141
    13 | 30:15.17 | 2:36.70 | 136142 | 147911
    14 | 32:52.12 | 2:49.33 | 147912 | 160619
    15 | 35:41.45 | 2:09.00 | 160620 | 170294
    16 | 37:50.45 | 2:43.35 | 170295 | 182554
    17 | 40:34.05 | 2:12.60 | 182555 | 192514
    18 | 42:46.65 | 3:19.47 | 192515 | 207486
    19 | 46:06.37 | 2:24.08 | 207487 | 218294
    20 | 48:30.45 | 3:22.35 | 218295 | 233479
    21 | 51:53.05 | 3:08.15 | 233480 | 247594
    22 | 55:01.20 | 2:39.45 | 247595 | 259564
    23 | 57:40.65 | 3:01.22 | 259565 | 273161
    24 | 60:42.12 | 2:49.58 | 273162 | 285894
    25 | 63:31.70 | 2:19.05 | 285895 | 296324
    26 | 65:51.00 | 2:44.30 | 296325 | 308654 Track 1

    Filename E:MUSICRay ConniffRay Conniff - The Singles Collection Vol. 1Ray Conniff - The Singles Collection Vol. 1CD1 How Am I To Know.wav

    Peak level 92.7 %
    Extraction speed 1.8 X
    Track quality 100.0 %
    Test CRC 52B27681
    Copy CRC 52B27681
    Accurately ripped (confidence 1) [DF4B55B6] (AR v2)
    Copy OK

    Track 2

    Filename E:MUSICRay ConniffRay Conniff - The Singles Collection Vol. 1Ray Conniff - The Singles Collection Vol. 1CD2 Wonderful Season Of Summer.wav

    Peak level 73.3 %
    Extraction speed 1.8 X
    Track quality 100.0 %
    Test CRC 932E5C11
    Copy CRC 932E5C11
    Accurately ripped (confidence 1) [F57045C0] (AR v2)
    Copy OK

    Track 3

    Filename E:MUSICRay ConniffRay Conniff - The Singles Collection Vol. 1Ray Conniff - The Singles Collection Vol. 1CD3 It Takes Two.wav

    Peak level 72.0 %
    Extraction speed 1.9 X
    Track quality 100.0 %
    Test CRC E268FB0D
    Copy CRC E268FB0D
    Accurately ripped (confidence 1) [C5B78F16] (AR v2)
    Copy OK

    Track 4

    Filename E:MUSICRay ConniffRay Conniff - The Singles Collection Vol. 1Ray Conniff - The Singles Collection Vol. 1CD4 Games That Lovers Play.wav

    Peak level 77.2 %
    Extraction speed 2.0 X
    Track quality 100.0 %
    Test CRC 4CC52BD3
    Copy CRC 4CC52BD3
    Accurately ripped (confidence 1) [C4F6A526] (AR v2)
    Copy OK

    Track 5

    Filename E:MUSICRay ConniffRay Conniff - The Singles Collection Vol. 1Ray Conniff - The Singles Collection Vol. 1CD5 Moonlight Brings Memories.wav

    Peak level 100.0 %
    Extraction speed 2.1 X
    Track quality 100.0 %
    Test CRC F64B23A7
    Copy CRC F64B23A7
    Accurately ripped (confidence 1) [EBBE55A0] (AR v2)
    Copy OK

    Track 6

    Filename E:MUSICRay ConniffRay Conniff - The Singles Collection Vol. 1Ray Conniff - The Singles Collection Vol. 1CD6 We're A Home.wav

    Peak level 93.4 %
    Extraction speed 2.1 X
    Track quality 100.0 %
    Test CRC 8C6D8D51
    Copy CRC 8C6D8D51
    Accurately ripped (confidence 1) [025A75B6] (AR v2)
    Copy OK

    Track 7

    Filename E:MUSICRay ConniffRay Conniff - The Singles Collection Vol. 1Ray Conniff - The Singles Collection Vol. 1CD7 A Certain Girl.wav

    Peak level 84.5 %
    Extraction speed 2.2 X
    Track quality 100.0 %
    Test CRC 453C1AC3
    Copy CRC 453C1AC3
    Accurately ripped (confidence 1) [C1E44338] (AR v2)
    Copy OK

    Track 8

    Filename E:MUSICRay ConniffRay Conniff - The Singles Collection Vol. 1Ray Conniff - The Singles Collection Vol. 1CD8 Look Homeward Angel.wav

    Peak level 85.2 %
    Extraction speed 2.3 X
    Track quality 100.0 %
    Test CRC 3006EB74
    Copy CRC 3006EB74
    Accurately ripped (confidence 1) [A2998DA7] (AR v2)
    Copy OK

    Track 9

    Filename E:MUSICRay ConniffRay Conniff - The Singles Collection Vol. 1Ray Conniff - The Singles Collection Vol. 1CD9 I've Got My Eyes On You.wav

    Peak level 100.0 %
    Extraction speed 2.6 X
    Track quality 100.0 %
    Test CRC A1EC2A5A
    Copy CRC A1EC2A5A
    Accurately ripped (confidence 1) [FD7F2E51] (AR v2)
    Copy OK

    Track 10

    Filename E:MUSICRay ConniffRay Conniff - The Singles Collection Vol. 1Ray Conniff - The Singles Collection Vol. 1CD10 Dear World.wav

    Peak level 86.5 %
    Extraction speed 2.5 X
    Track quality 100.0 %
    Test CRC 84C077DF
    Copy CRC 84C077DF
    Accurately ripped (confidence 1) [526E7310] (AR v2)
    Copy OK

    Track 11

    Filename E:MUSICRay ConniffRay Conniff - The Singles Collection Vol. 1Ray Conniff - The Singles Collection Vol. 1CD11 Love Made A Fool Of Me.wav

    Peak level 90.6 %
    Extraction speed 2.7 X
    Track quality 100.0 %
    Test CRC 7D34CBD8
    Copy CRC 7D34CBD8
    Accurately ripped (confidence 1) [2F3E9355] (AR v2)
    Copy OK

    Track 12

    Filename E:MUSICRay ConniffRay Conniff - The Singles Collection Vol. 1Ray Conniff - The Singles Collection Vol. 1CD12 La Felicidad (The Happiness).wav

    Peak level 94.1 %
    Extraction speed 2.1 X
    Track quality 99.9 %
    Test CRC 17EC1EE2
    Copy CRC 17EC1EE2
    Accurately ripped (confidence 1) [49CD17A5] (AR v2)
    Copy OK

    Track 13

    Filename E:MUSICRay ConniffRay Conniff - The Singles Collection Vol. 1Ray Conniff - The Singles Collection Vol. 1CD13 These Are My Flowers.wav

    Peak level 88.1 %
    Extraction speed 2.8 X
    Track quality 100.0 %
    Test CRC 703BAE05
    Copy CRC 703BAE05
    Accurately ripped (confidence 1) [F6434811] (AR v2)
    Copy OK

    Track 14

    Filename E:MUSICRay ConniffRay Conniff - The Singles Collection Vol. 1Ray Conniff - The Singles Collection Vol. 1CD14 Songs Are For Lovers.wav

    Peak level 86.3 %
    Extraction speed 2.9 X
    Track quality 100.0 %
    Test CRC 4480BE14
    Copy CRC 4480BE14
    Accurately ripped (confidence 1) [ABED3787] (AR v2)
    Copy OK

    Track 15

    Filename E:MUSICRay ConniffRay Conniff - The Singles Collection Vol. 1Ray Conniff - The Singles Collection Vol. 1CD15 Half And Half (Song For Sarah).wav

    Peak level 100.0 %
    Extraction speed 2.8 X
    Track quality 100.0 %
    Test CRC 831DF1BE
    Copy CRC 831DF1BE
    Accurately ripped (confidence 1) [BEC3252C] (AR v2)
    Copy OK

    Track 16

    Filename E:MUSICRay ConniffRay Conniff - The Singles Collection Vol. 1Ray Conniff - The Singles Collection Vol. 1CD16 A Walk In The Spring Rain.wav

    Peak level 100.0 %
    Extraction speed 3.0 X
    Track quality 100.0 %
    Test CRC B3C6AE9C
    Copy CRC B3C6AE9C
    Accurately ripped (confidence 1) [903373A1] (AR v2)
    Copy OK

    Track 17

    Filename E:MUSICRay ConniffRay Conniff - The Singles Collection Vol. 1Ray Conniff - The Singles Collection Vol. 1CD17 Loss Of Love.wav

    Peak level 78.4 %
    Extraction speed 2.0 X
    Track quality 99.9 %
    Test CRC C7B29FA9
    Copy CRC C7B29FA9
    Accurately ripped (confidence 1) [4491C527] (AR v2)
    Copy OK

    Track 18

    Filename E:MUSICRay ConniffRay Conniff - The Singles Collection Vol. 1Ray Conniff - The Singles Collection Vol. 1CD18 Rosa.wav

    Peak level 100.0 %
    Extraction speed 3.2 X
    Track quality 100.0 %
    Test CRC F2C46D37
    Copy CRC F2C46D37
    Accurately ripped (confidence 1) [C14C3D28] (AR v2)
    Copy OK

    Track 19

    Filename E:MUSICRay ConniffRay Conniff - The Singles Collection Vol. 1Ray Conniff - The Singles Collection Vol. 1CD19 Out Of The Darkness (Into The Light).wav

    Peak level 79.1 %
    Extraction speed 2.1 X
    Track quality 99.9 %
    Test CRC 5E0BF641
    Copy CRC 5E0BF641
    Accurately ripped (confidence 1) [A87FAA49] (AR v2)
    Copy OK

    Track 20

    Filename E:MUSICRay ConniffRay Conniff - The Singles Collection Vol. 1Ray Conniff - The Singles Collection Vol. 1CD20 Where Were You.wav

    Peak level 100.0 %
    Extraction speed 3.4 X
    Track quality 100.0 %
    Test CRC A0E2C852
    Copy CRC A0E2C852
    Accurately ripped (confidence 1) [7ABB1D89] (AR v2)
    Copy OK

    Track 21

    Filename E:MUSICRay ConniffRay Conniff - The Singles Collection Vol. 1Ray Conniff - The Singles Collection Vol. 1CD21 We Must Forget We Ever Met.wav

    Peak level 100.0 %
    Extraction speed 2.4 X
    Track quality 99.9 %
    Test CRC 749D3561
    Copy CRC 749D3561
    Accurately ripped (confidence 1) [D22BA65E] (AR v2)
    Copy OK

    Track 22

    Filename E:MUSICRay ConniffRay Conniff - The Singles Collection Vol. 1Ray Conniff - The Singles Collection Vol. 1CD22 Sleepy Shores.wav

    Peak level 100.0 %
    Extraction speed 3.4 X
    Track quality 100.0 %
    Test CRC 60677DD8
    Copy CRC 60677DD8
    Accurately ripped (confidence 1) [194916A0] (AR v2)
    Copy OK

    Track 23

    Filename E:MUSICRay ConniffRay Conniff - The Singles Collection Vol. 1Ray Conniff - The Singles Collection Vol. 1CD23 Face On The Wind.wav

    Peak level 97.9 %
    Extraction speed 3.5 X
    Track quality 100.0 %
    Test CRC 1104C638
    Copy CRC 1104C638
    Accurately ripped (confidence 1) [E8140957] (AR v2)
    Copy OK

    Track 24

    Filename E:MUSICRay ConniffRay Conniff - The Singles Collection Vol. 1Ray Conniff - The Singles Collection Vol. 1CD24 A Man Without A Vision.wav

    Peak level 100.0 %
    Extraction speed 3.6 X
    Track quality 100.0 %
    Test CRC A611DC4E
    Copy CRC A611DC4E
    Accurately ripped (confidence 1) [C071DD69] (AR v2)
    Copy OK

    Track 25

    Filename E:MUSICRay ConniffRay Conniff - The Singles Collection Vol. 1Ray Conniff - The Singles Collection Vol. 1CD25 Sing Along Song.wav

    Peak level 93.0 %
    Extraction speed 3.5 X
    Track quality 100.0 %
    Test CRC F3466A7C
    Copy CRC F3466A7C
    Accurately ripped (confidence 1) [170B3C7C] (AR v2)
    Copy OK

    Track 26

    Filename E:MUSICRay ConniffRay Conniff - The Singles Collection Vol. 1Ray Conniff - The Singles Collection Vol. 1CD26 I Understand Just How You Feel.wav

    Peak level 100.0 %
    Extraction speed 3.7 X
    Track quality 100.0 %
    Test CRC BE10EE65
    Copy CRC BE10EE65
    Accurately ripped (confidence 1) [BADB551B] (AR v2)
    Copy OK All tracks accurately ripped

    No errors occurred

    End of status report

    ==== Log checksum 890FA5F39240381EC122CEE6D0073855FCA55BBCE78575C6C3CE6D5816E1AF08 ====

    ------------------------------------------------------------

    Exact Audio Copy V1.0 beta 3 from 29. August 2011

    EAC extraction logfile from 26. October 2013, 10:42

    Ray Conniff / The Singles Collection, Volume 1

    Used drive : SONY DVD RW DRU-840A Adapter: 0 ID: 1

    Read mode : Secure
    Utilize accurate stream : Yes
    Defeat audio cache : Yes
    Make use of C2 pointers : No

    Read offset correction : 6
    Overread into Lead-In and Lead-Out : No
    Fill up missing offset samples with silence : Yes
    Delete leading and trailing silent blocks : No
    Null samples used in CRC calculations : Yes
    Used interface : Native Win32 interface for Win NT & 2000
    Gap handling : Not detected, thus appended to previous track

    Used output format : User Defined Encoder
    Selected bitrate : 320 kBit/s
    Quality : High
    Add ID3 tag : No
    Command line compressor : C:Archivos de programaExact Audio CopyFLACFLAC.EXE
    Additional command line options : -6 -V -T "ARTIST=%artist%" -T "TITLE=%title%" -T "ALBUM=%albumtitle%" -T "DATE=%year%" -T "TRACKNUMBER=%tracknr%" -T "GENRE=%genre%" -T "COMMENT=%comment%" -T "BAND=%albuminterpret%" -T "ALBUMARTIST=%albuminterpret%" -T "COMPOSER=%composer%" %haslyrics%--tag-from-file=LYRICS="%lyricsfile%"%haslyrics% -T "DISCNUMBER=%cdnumber%" -T "TOTALDISCS=%totalcds%" -T "TOTALTRACKS=%numtracks%" %hascover%--picture="%coverfile%"%hascover% %source% -o %dest% TOC of the extracted CD

    Track | Start | Length | Start sector | End sector
    ---------------------------------------------------------
    1 | 0:00.00 | 2:41.57 | 0 | 12131
    2 | 2:41.57 | 1:59.25 | 12132 | 21081
    3 | 4:41.07 | 2:20.15 | 21082 | 31596
    4 | 7:01.22 | 2:19.25 | 31597 | 42046
    5 | 9:20.47 | 2:24.73 | 42047 | 52919
    6 | 11:45.45 | 2:01.45 | 52920 | 62039
    7 | 13:47.15 | 2:09.15 | 62040 | 71729
    8 | 15:56.30 | 2:35.72 | 71730 | 83426
    9 | 18:32.27 | 3:17.23 | 83427 | 98224
    10 | 21:49.50 | 2:27.00 | 98225 | 109249
    11 | 24:16.50 | 2:56.50 | 109250 | 122499
    12 | 27:13.25 | 3:01.67 | 122500 | 136141
    13 | 30:15.17 | 2:36.70 | 136142 | 147911
    14 | 32:52.12 | 2:49.33 | 147912 | 160619
    15 | 35:41.45 | 2:09.00 | 160620 | 170294
    16 | 37:50.45 | 2:43.35 | 170295 | 182554
    17 | 40:34.05 | 2:12.60 | 182555 | 192514
    18 | 42:46.65 | 3:19.47 | 192515 | 207486
    19 | 46:06.37 | 2:24.08 | 207487 | 218294
    20 | 48:30.45 | 3:22.35 | 218295 | 233479
    21 | 51:53.05 | 3:08.15 | 233480 | 247594
    22 | 55:01.20 | 2:39.45 | 247595 | 259564
    23 | 57:40.65 | 3:01.22 | 259565 | 273161
    24 | 60:42.12 | 2:49.58 | 273162 | 285894
    25 | 63:31.70 | 2:19.05 | 285895 | 296324
    26 | 65:51.00 | 2:44.30 | 296325 | 308654 Track 1

    Filename E:MUSICRay ConniffRay Conniff - The Singles Collection Vol. 1Ray Conniff - The Singles Collection Vol. 1CD1 How Am I To Know.wav

    Peak level 92.7 %
    Extraction speed 1.8 X
    Track quality 100.0 %
    Test CRC 52B27681
    Copy CRC 52B27681
    Accurately ripped (confidence 1) [DF4B55B6] (AR v2)
    Copy OK

    Track 2

    Filename E:MUSICRay ConniffRay Conniff - The Singles Collection Vol. 1Ray Conniff - The Singles Collection Vol. 1CD2 Wonderful Season Of Summer.wav

    Peak level 73.3 %
    Extraction speed 1.8 X
    Track quality 100.0 %
    Test CRC 932E5C11
    Copy CRC 932E5C11
    Accurately ripped (confidence 1) [F57045C0] (AR v2)
    Copy OK

    Track 3

    Filename E:MUSICRay ConniffRay Conniff - The Singles Collection Vol. 1Ray Conniff - The Singles Collection Vol. 1CD3 It Takes Two.wav

    Peak level 72.0 %
    Extraction speed 1.9 X
    Track quality 100.0 %
    Test CRC E268FB0D
    Copy CRC E268FB0D
    Accurately ripped (confidence 1) [C5B78F16] (AR v2)
    Copy OK

    Track 4

    Filename E:MUSICRay ConniffRay Conniff - The Singles Collection Vol. 1Ray Conniff - The Singles Collection Vol. 1CD4 Games That Lovers Play.wav

    Peak level 77.2 %
    Extraction speed 2.0 X
    Track quality 100.0 %
    Test CRC 4CC52BD3
    Copy CRC 4CC52BD3
    Accurately ripped (confidence 1) [C4F6A526] (AR v2)
    Copy OK

    Track 5

    Filename E:MUSICRay ConniffRay Conniff - The Singles Collection Vol. 1Ray Conniff - The Singles Collection Vol. 1CD5 Moonlight Brings Memories.wav

    Peak level 100.0 %
    Extraction speed 2.1 X
    Track quality 100.0 %
    Test CRC F64B23A7
    Copy CRC F64B23A7
    Accurately ripped (confidence 1) [EBBE55A0] (AR v2)
    Copy OK

    Track 6

    Filename E:MUSICRay ConniffRay Conniff - The Singles Collection Vol. 1Ray Conniff - The Singles Collection Vol. 1CD6 We're A Home.wav

    Peak level 93.4 %
    Extraction speed 2.1 X
    Track quality 100.0 %
    Test CRC 8C6D8D51
    Copy CRC 8C6D8D51
    Accurately ripped (confidence 1) [025A75B6] (AR v2)
    Copy OK

    Track 7

    Filename E:MUSICRay ConniffRay Conniff - The Singles Collection Vol. 1Ray Conniff - The Singles Collection Vol. 1CD7 A Certain Girl.wav

    Peak level 84.5 %
    Extraction speed 2.2 X
    Track quality 100.0 %
    Test CRC 453C1AC3
    Copy CRC 453C1AC3
    Accurately ripped (confidence 1) [C1E44338] (AR v2)
    Copy OK

    Track 8

    Filename E:MUSICRay ConniffRay Conniff - The Singles Collection Vol. 1Ray Conniff - The Singles Collection Vol. 1CD8 Look Homeward Angel.wav

    Peak level 85.2 %
    Extraction speed 2.3 X
    Track quality 100.0 %
    Test CRC 3006EB74
    Copy CRC 3006EB74
    Accurately ripped (confidence 1) [A2998DA7] (AR v2)
    Copy OK

    Track 9

    Filename E:MUSICRay ConniffRay Conniff - The Singles Collection Vol. 1Ray Conniff - The Singles Collection Vol. 1CD9 I've Got My Eyes On You.wav

    Peak level 100.0 %
    Extraction speed 2.6 X
    Track quality 100.0 %
    Test CRC A1EC2A5A
    Copy CRC A1EC2A5A
    Accurately ripped (confidence 1) [FD7F2E51] (AR v2)
    Copy OK

    Track 10

    Filename E:MUSICRay ConniffRay Conniff - The Singles Collection Vol. 1Ray Conniff - The Singles Collection Vol. 1CD10 Dear World.wav

    Peak level 86.5 %
    Extraction speed 2.5 X
    Track quality 100.0 %
    Test CRC 84C077DF
    Copy CRC 84C077DF
    Accurately ripped (confidence 1) [526E7310] (AR v2)
    Copy OK

    Track 11

    Filename E:MUSICRay ConniffRay Conniff - The Singles Collection Vol. 1Ray Conniff - The Singles Collection Vol. 1CD11 Love Made A Fool Of Me.wav

    Peak level 90.6 %
    Extraction speed 2.7 X
    Track quality 100.0 %
    Test CRC 7D34CBD8
    Copy CRC 7D34CBD8
    Accurately ripped (confidence 1) [2F3E9355] (AR v2)
    Copy OK

    Track 12

    Filename E:MUSICRay ConniffRay Conniff - The Singles Collection Vol. 1Ray Conniff - The Singles Collection Vol. 1CD12 La Felicidad (The Happiness).wav

    Peak level 94.1 %
    Extraction speed 2.1 X
    Track quality 99.9 %
    Test CRC 17EC1EE2
    Copy CRC 17EC1EE2
    Accurately ripped (confidence 1) [49CD17A5] (AR v2)
    Copy OK

    Track 13

    Filename E:MUSICRay ConniffRay Conniff - The Singles Collection Vol. 1Ray Conniff - The Singles Collection Vol. 1CD13 These Are My Flowers.wav

    Peak level 88.1 %
    Extraction speed 2.8 X
    Track quality 100.0 %
    Test CRC 703BAE05
    Copy CRC 703BAE05
    Accurately ripped (confidence 1) [F6434811] (AR v2)
    Copy OK

    Track 14

    Filename E:MUSICRay ConniffRay Conniff - The Singles Collection Vol. 1Ray Conniff - The Singles Collection Vol. 1CD14 Songs Are For Lovers.wav

    Peak level 86.3 %
    Extraction speed 2.9 X
    Track quality 100.0 %
    Test CRC 4480BE14
    Copy CRC 4480BE14
    Accurately ripped (confidence 1) [ABED3787] (AR v2)
    Copy OK

    Track 15

    Filename E:MUSICRay ConniffRay Conniff - The Singles Collection Vol. 1Ray Conniff - The Singles Collection Vol. 1CD15 Half And Half (Song For Sarah).wav

    Peak level 100.0 %
    Extraction speed 2.8 X
    Track quality 100.0 %
    Test CRC 831DF1BE
    Copy CRC 831DF1BE
    Accurately ripped (confidence 1) [BEC3252C] (AR v2)
    Copy OK

    Track 16

    Filename E:MUSICRay ConniffRay Conniff - The Singles Collection Vol. 1Ray Conniff - The Singles Collection Vol. 1CD16 A Walk In The Spring Rain.wav

    Peak level 100.0 %
    Extraction speed 3.0 X
    Track quality 100.0 %
    Test CRC B3C6AE9C
    Copy CRC B3C6AE9C
    Accurately ripped (confidence 1) [903373A1] (AR v2)
    Copy OK

    Track 17

    Filename E:MUSICRay ConniffRay Conniff - The Singles Collection Vol. 1Ray Conniff - The Singles Collection Vol. 1CD17 Loss Of Love.wav

    Peak level 78.4 %
    Extraction speed 2.0 X
    Track quality 99.9 %
    Test CRC C7B29FA9
    Copy CRC C7B29FA9
    Accurately ripped (confidence 1) [4491C527] (AR v2)
    Copy OK

    Track 18

    Filename E:MUSICRay ConniffRay Conniff - The Singles Collection Vol. 1Ray Conniff - The Singles Collection Vol. 1CD18 Rosa.wav

    Peak level 100.0 %
    Extraction speed 3.2 X
    Track quality 100.0 %
    Test CRC F2C46D37
    Copy CRC F2C46D37
    Accurately ripped (confidence 1) [C14C3D28] (AR v2)
    Copy OK

    Track 19

    Filename E:MUSICRay ConniffRay Conniff - The Singles Collection Vol. 1Ray Conniff - The Singles Collection Vol. 1CD19 Out Of The Darkness (Into The Light).wav

    Peak level 79.1 %
    Extraction speed 2.1 X
    Track quality 99.9 %
    Test CRC 5E0BF641
    Copy CRC 5E0BF641
    Accurately ripped (confidence 1) [A87FAA49] (AR v2)
    Copy OK

    Track 20

    Filename E:MUSICRay ConniffRay Conniff - The Singles Collection Vol. 1Ray Conniff - The Singles Collection Vol. 1CD20 Where Were You.wav

    Peak level 100.0 %
    Extraction speed 3.4 X
    Track quality 100.0 %
    Test CRC A0E2C852
    Copy CRC A0E2C852
    Accurately ripped (confidence 1) [7ABB1D89] (AR v2)
    Copy OK

    Track 21

    Filename E:MUSICRay ConniffRay Conniff - The Singles Collection Vol. 1Ray Conniff - The Singles Collection Vol. 1CD21 We Must Forget We Ever Met.wav

    Peak level 100.0 %
    Extraction speed 2.4 X
    Track quality 99.9 %
    Test CRC 749D3561
    Copy CRC 749D3561
    Accurately ripped (confidence 1) [D22BA65E] (AR v2)
    Copy OK

    Track 22

    Filename E:MUSICRay ConniffRay Conniff - The Singles Collection Vol. 1Ray Conniff - The Singles Collection Vol. 1CD22 Sleepy Shores.wav

    Peak level 100.0 %
    Extraction speed 3.4 X
    Track quality 100.0 %
    Test CRC 60677DD8
    Copy CRC 60677DD8
    Accurately ripped (confidence 1) [194916A0] (AR v2)
    Copy OK

    Track 23

    Filename E:MUSICRay ConniffRay Conniff - The Singles Collection Vol. 1Ray Conniff - The Singles Collection Vol. 1CD23 Face On The Wind.wav

    Peak level 97.9 %
    Extraction speed 3.5 X
    Track quality 100.0 %
    Test CRC 1104C638
    Copy CRC 1104C638
    Accurately ripped (confidence 1) [E8140957] (AR v2)
    Copy OK

    Track 24

    Filename E:MUSICRay ConniffRay Conniff - The Singles Collection Vol. 1Ray Conniff - The Singles Collection Vol. 1CD24 A Man Without A Vision.wav

    Peak level 100.0 %
    Extraction speed 3.6 X
    Track quality 100.0 %
    Test CRC A611DC4E
    Copy CRC A611DC4E
    Accurately ripped (confidence 1) [C071DD69] (AR v2)
    Copy OK

    Track 25

    Filename E:MUSICRay ConniffRay Conniff - The Singles Collection Vol. 1Ray Conniff - The Singles Collection Vol. 1CD25 Sing Along Song.wav

    Peak level 93.0 %
    Extraction speed 3.5 X
    Track quality 100.0 %
    Test CRC F3466A7C
    Copy CRC F3466A7C
    Accurately ripped (confidence 1) [170B3C7C] (AR v2)
    Copy OK

    Track 26

    Filename E:MUSICRay ConniffRay Conniff - The Singles Collection Vol. 1Ray Conniff - The Singles Collection Vol. 1CD26 I Understand Just How You Feel.wav

    Peak level 100.0 %
    Extraction speed 3.7 X
    Track quality 100.0 %
    Test CRC BE10EE65
    Copy CRC BE10EE65
    Accurately ripped (confidence 1) [BADB551B] (AR v2)
    Copy OK All tracks accurately ripped

    No errors occurred

    End of status report

    ==== Log checksum 890FA5F39240381EC122CEE6D0073855FCA55BBCE78575C6C3CE6D5816E1AF08 ====





    Free Full Download Ray Conniff - The Singles form MediaFire.com link RapidShare, Uploaded.to, Zippyshare, FileSonic, turbobit.net, ul.to, ORON, DepositFiles, rapidgator.net, letitbit.net, extabit.com, filefactory.com. Ray Conniff - The Singles Collection Volume 1 (2005) RE-UP Torrent Download with keygen, crack, serial, 1080p, hdrip, 720p, 2015, 2016

    Beth Hart & Joe Bonamassa - Dont Explain


    Beth Hart & Joe Bonamassa - Don't Explain
    FLAC | image + cue | EAC log | scans | 361 Mb (5% recov.)
    blues-rock | Filesonic, Hotfile, Wupload | 2011
    J*R Adventures (PRAR931391)
    “Joe Bonamassa is a very busy man. In March he released his latest solo album Dust Bowl and in June his band Black Country Communion released 2, arguably the best rock album of the...

    Acker Bilk - The Absolutley Essential Collection (2014)


    Acker Bilk - The Absolutley Essential Collection (2014)
    Smooth Jazz, Easy Listening | MP3 320 kbps CBR | 192 min | 440 MB
    Label: Big 3 | Rel: 2014
    60 track survey of one of the UKs most loved musicians, plying his trade throughout the 50s and early 60s. We open with his smash hit, on both sides of the Atlantic, Stranger On The Shore....

    VA - Nighttime Lovers 13-20: A Fine Collection of Disco Funk Classics of the 80s (2011-2014)


    VA - Nighttime Lovers 13-20: A Fine Collection of Disco Funk Classics of the 80's (2011-2014)
    Disco, Funk, Soul, RnB | MP3 320 kbps CBR | 9 hours | 1.29 MB
    Label: PTG Records | Rel: 2011-2014
    An indispensable thing for stylish and not so "Party" and even "Aftherparty" cognac, whiskey, sex ... that someone like, and "Nighttime Lovers"....

    V.A - 12 Inch Dance: 80s Groove (2014)


    V.A - 12 Inch Dance: 80s Groove (2014)
    Disco, Soul, Funk | MP3 320 kbps | 210:10 min | ~497 MB
    Label: Rhino Records | Tracks: 30 | Rls.date: 2014
    2014 three CD collection of '80s R&B/Soul/Funk remixes. Includes tracks from Sister Sledge, Patrice Rushen, Narada Michael Walden, Rufus & Chaka Khan. Cherrelle, Nu Shooz and many others....

    Johnny Cash - Come Along And Ride This Train (1991) 4CD Box Bear Family BCD 15563


    Johnny Cash - Come Along And Ride This Train (1991) [4CD Box, Bear Family BCD 15563]
    Country | EAC Rip | Flac(Image) + Cue + Log | MP3 CBR 320Kbps | Covers -> 21 Mb
    Bear Family Records | BCD 15563 | ~1456 + 687 Mb | FileSonic, HotFile
    “It's a statement of Johnny Cash's longevity that the eight albums collected here -- each one a concept collection devoted...

    V.A. - The Perfect Guitar Collection: 25 Original Albums (2012) 25 CD Box Set


    V.A. - The Perfect Guitar Collection: 25 Original Albums (2012) [25 CD Box Set]
    EAC Rip | FLAC: Image+Cue+Log | 7.3 GB | MP3 CBR 320 kbps | 3.2 GB | Scans | 459.15 MB | TTime: 20:45:04
    Genre: Jazz, Blues, Rock, Fusion, Instrumental | Label: Columbia/Sony Music | Cat.#: 88725413792
    “This guitar compilation provides you with a knock-out collection of full albums by guitar...

    VA - Monte Carlo Nights - Nouveau Beat - Vol.5 (2010)


    VA - Monte Carlo Nights - Nouveau Beat - Vol.5 (2010)
    2CD | 31 Tracks | MP3 256 Kbps | 256 Mb
    Genre: Chill out, Lounge | Date: 7 September 2010 | Label: EMI
    L'avventura musicale della collection Nouveau Beat si arricchisce di un nuovo, emozionante capitolo. E' uscito infatti nei negozi di dischi e in versione digitale su iTunes “NOUVEAU BEAT VOL 5”, il doppio cd...

    Andy Williams - Original Album Collection Vol. 1 (2013) Mini LP 8 CD Box Set


    Andy Williams - Original Album Collection Vol. 1 (2013) Mini LP 8 CD Box Set
    EAC | FLAC | Image (Cue&Log) ~ 2.11 Gb | Mp3 (CBR320) ~ 1.01 Mb | Scans ~ 351 Mb
    Genre: Easy Listening, Vocal Pop, Traditional Pop | Label: Sony Music | # SICP-3742~9 | Time: 04:36:02
    “Japanese original release. First box set of Andy Williams includes seven original albums "Canadian...

    Delbert McClinton - Room To Breath (2002)


    Delbert McClinton - Room To Breath (2002)
    EAC Rip | FLAC, IMG+CUE, LOG | 287 MB | 42,20 min. | Covers
    Label: New West Records | Rock, Blues-Rock, Country | RAR 3% Rec.
    “Delbert McClinton (born 4 November 1940, in Lubbock, Texas) is a Grammy Award-winning singer-songwriter and musician. Active as a side-man since at least 1962 and as a band leader since 1972, he has...

    ABBA - Singles Collection: 1972-1982 (1999) 27 CDS Box Set


    ABBA - Singles Collection: 1972-1982 (1999) [27 CDS Box Set]
    27x EAC-FLAC(tracks) with CUEs & LOGs - 1,45 GB | Full Scans | MP3 CBR 320 Kbps - 478 MB
    Pop / Disco | TT - 211:41 minutes | Label: Polar Music International A.B. | Catalogue # 561252-2
    Rare 1999 UK limited edition 54-track 27-CD single box set, features all the singles from the decade in superb colour card...

    Add comment
    Try to express their thoughts correctly and succinctly


Bryan Adams - Discography (1979-2015)
Bryan Adams - Discography 1979-2015 (28 Albums, 52CD+23 Singles) Genre: Rock ||
VA - Masterpieces of Chillout (2015)
Masterpieces of Chillout (2015) Label: Jizoom | Genre: Downtempo, Chillout,
Barrett Baber - The Complete Season 9 Collection (The Voice
Release Name: Barrett Baber - The Complete Season 9 Collection (The Voice
John Williams - Star Wars: The Force Awakens - Original Motion
John Williams - Star Wars: The Force Awakens - Original Motion Picture
The Teacher-Friendly Guide to Climate Change
The Teacher-Friendly Guide to Climate Change by Ingrid H. H. Zabel English |
Clinical Photography in Dentistry
Clinical Photography in Dentistry: A New Perspective Quintessence | English |
Business Statistics
Business Statistics by Richard D. De Veaux English | 23 Jan. 2014 | ISBN:
Surgical Design for Dental Reconstruction with Implants
Surgical Design for Dental Reconstruction with Implants: A New Paradigm
Realtime Landscaping Architect 2016 16.07 180119
Realtime Landscaping Architect 2016 16.07 180119 Realtime Landscaping
Cycles And Spots Ibiza Chill WAV MiDi 180119
Cycles And Spots Ibiza Chill WAV MiDi 180119 Cycles And Spots Ibiza Chill
Cycles And Spots 80s Pop WAV MiDi 180119
Cycles And Spots 80s Pop WAV MiDi 180119 Cycles And Spots 80s Pop WAV MiDi |
Cycles And Spots 90s House WAV MiDi 180119
Cycles And Spots 90s House WAV MiDi 180119 Cycles And Spots 90s House WAV
Abstract oil painting 1 - 5 UHQ JPEG
Abstract oil painting 1 - 5 UHQ JPEG 5 UHQ JPEG | 5760X3840 | 300 DPI | 28 MB
Juice and Fresh UHQ JPG
Juice and Fresh UHQ JPG 10 UHQ JPG | up to 8000x5323 Pixels | 102 Mb
Girl in abstraction - 6 UHQ JPEG
Girl in abstraction - 6 UHQ JPEG 6 UHQ JPEG | 5915X4212 | 300 DPI | 60 MB
Flyer Psd Template - Farmer Flyer Business
Flyer Psd Template - Farmer Flyer Business PSD | 1275x1875 PIX | fontinfo |

Download Torrents. Fast and Free Torrent Downloads.

Not Store Any File In Server. The Links Are Provided Solely By This Site's Users.

If You Have Any Doubts About Legality Of Content, Feel Free To Contact US.
© 2015 - 2016