Torrent HaHa

Free download any torrents what you need
    New Download Links
    Speed
     kbps
     kbps
     kbps

    Lightnin Hopkins - Double Blues (1973/1989)

    Category: Music data: 20-12-2015, 20:25
    Rating:
    (votes: 0)

    Lightnin' Hopkins - Double Blues (1973/1989)
    EAC Rip | FLAC (Tracks) + CUE + LOG | Covers | 354 MB
    Genre: Blues/Acoustic Texas Blues | Label: Fantasy | Release Date: 1989 | Catalog Number: FCD-24702-2
    Hoster: Uploaded + Cloudzer + DepositFiles | RAR 5% Rec.

    Lightnin' Hopkins' plaintive, soft-rolling blues style is exemplified on "Let's Go Sit on the Lawn," "Just a Wristwatch on My Arm," "I'm a Crawling Black Snake," Willie Dixon's "My Babe," and others. Accompanied only by himself on guitar (and oh what a guitar he plays), Leonard Gaskin (bass), and Herb Lovelle (drums), Hopkins' seductive, intricate guitar picks and strums will dance around in your head long after this CD has played. His voice, which sounds like it's aged in Camels and Jim Beam, conveys his heartfelt sagas to the fullest. A prolific songwriter, Hopkins wrote every song except the Dixon tune.-- by Andrew Hamilton
    ------------
    Tracklist
    ------------
    1. Let's Go Sit On the Lawn 4:17
    2. I'm Taking A Devil of a Chance 3:56
    3. I Got Tired 4:40
    4. I Asked The Bossman 6:46
    5. Just A Wristwatch On My Arm 3:38
    6. I Woke Up This Morning 5:55
    7. I Was Standing on 75 Highway 5:14
    8. I'm Going To Build Me a Heaven of My Own 5:59
    9. My Babe 3:23
    10. Too Many Drivers 3:32
    11. I'm A Crawling Black Snake 4:51
    12. Rocky Mountain Blues 3:54
    13. I Mean Goodbye 3:03
    14. The Howling Wolf 3:57
    15. Black Ghost Blues 3:34
    16. Darling, Do You Remember Me? 3:43
    17. Lonesome Graveyard 5:30

    All Selections Recorded May4-5,1964

    Personnel:
    Lightnin' Hopkins - Guitar,Vocals
    Leonard Gaskin - Bass
    Herbie Lovelle - Drums



    EAC LOG
    Exact Audio Copy V0.99 prebeta 5 from 4. May 2009

    EAC extraction logfile from 2. July 2010, 10:54

    Lightnin' Hopkins / Double Blues

    Used drive : HL-DT-STDVDRAM GH22NS50 Adapter: 1 ID: 0

    Read mode : Secure
    Utilize accurate stream : Yes
    Defeat audio cache : Yes
    Make use of C2 pointers : No

    Read offset correction : 0
    Overread into Lead-In and Lead-Out : No
    Fill up missing offset samples with silence : Yes
    Delete leading and trailing silent blocks : No
    Null samples used in CRC calculations : Yes
    Used interface : Native Win32 interface for Win NT & 2000
    Gap handling : Not detected, thus appended to previous track

    Used output format : User Defined Encoder
    Selected bitrate : 128 kBit/s
    Quality : High
    Add ID3 tag : No
    Command line compressor : C:Program FilesExact Audio CopyFlacflac.exe
    Additional command line options : -V -8 -T "artist=%a" -T "title=%t" -T "album=%g" -T "date=%y" -T "tracknumber=%n" -T "genre=%m" %s TOC of the extracted CD

    Track | Start | Length | Start sector | End sector
    ---------------------------------------------------------
    1 | 0:00.00 | 4:17.62 | 0 | 19336
    2 | 4:17.62 | 3:56.38 | 19337 | 37074
    3 | 8:14.25 | 4:40.10 | 37075 | 58084
    4 | 12:54.35 | 6:46.32 | 58085 | 88566
    5 | 19:40.67 | 3:38.53 | 88567 | 104969
    6 | 23:19.45 | 5:55.57 | 104970 | 131651
    7 | 29:15.27 | 5:14.08 | 131652 | 155209
    8 | 34:29.35 | 5:59.02 | 155210 | 182136
    9 | 40:28.37 | 3:23.45 | 182137 | 197406
    10 | 43:52.07 | 3:32.30 | 197407 | 213336
    11 | 47:24.37 | 4:51.53 | 213337 | 235214
    12 | 52:16.15 | 3:54.60 | 235215 | 252824
    13 | 56:11.00 | 3:03.65 | 252825 | 266614
    14 | 59:14.65 | 3:57.25 | 266615 | 284414
    15 | 63:12.15 | 3:34.20 | 284415 | 300484
    16 | 66:46.35 | 3:43.05 | 300485 | 317214
    17 | 70:29.40 | 5:29.55 | 317215 | 341944 Track 1

    Filename C:My RipsLightnin' Hopkins - Double Blues1 - Let's Go Sit On the Lawn.wav

    Peak level 80.4 %
    Track quality 100.0 %
    Copy CRC FF887CAD
    Copy OK

    Track 2

    Filename C:My RipsLightnin' Hopkins - Double Blues2 - I'm Taking A Devil of a Chance.wav

    Peak level 74.4 %
    Track quality 100.0 %
    Copy CRC 16C8F983
    Copy OK

    Track 3

    Filename C:My RipsLightnin' Hopkins - Double Blues3 - I Got Tired.wav

    Peak level 83.5 %
    Track quality 100.0 %
    Copy CRC E4EE286F
    Copy OK

    Track 4

    Filename C:My RipsLightnin' Hopkins - Double Blues4 - I Asked The Bossman.wav

    Peak level 92.2 %
    Track quality 99.9 %
    Copy CRC 6F9AB3AF
    Copy OK

    Track 5

    Filename C:My RipsLightnin' Hopkins - Double Blues5 - Just A Wristwatch On My Arm.wav

    Peak level 74.4 %
    Track quality 100.0 %
    Copy CRC 0DF3F868
    Copy OK

    Track 6

    Filename C:My RipsLightnin' Hopkins - Double Blues6 - I Woke Up This Morning.wav

    Peak level 84.2 %
    Track quality 100.0 %
    Copy CRC A74BAA78
    Copy OK

    Track 7

    Filename C:My RipsLightnin' Hopkins - Double Blues7 - I Was Standing on 75 Highway.wav

    Peak level 89.9 %
    Track quality 100.0 %
    Copy CRC 791103D5
    Copy OK

    Track 8

    Filename C:My RipsLightnin' Hopkins - Double Blues8 - I'm Going To Build Me a Heaven of My Own.wav

    Peak level 72.7 %
    Track quality 100.0 %
    Copy CRC 2C167C58
    Copy OK

    Track 9

    Filename C:My RipsLightnin' Hopkins - Double Blues9 - My Babe.wav

    Peak level 74.4 %
    Track quality 99.8 %
    Copy CRC AA39CCF6
    Copy OK

    Track 10

    Filename C:My RipsLightnin' Hopkins - Double Blues10 - Too Many Drivers.wav

    Peak level 66.5 %
    Track quality 100.0 %
    Copy CRC 759ECDC8
    Copy OK

    Track 11

    Filename C:My RipsLightnin' Hopkins - Double Blues11 - I'm A Crawling Black Snake.wav

    Peak level 62.9 %
    Track quality 100.0 %
    Copy CRC B88B93A4
    Copy OK

    Track 12

    Filename C:My RipsLightnin' Hopkins - Double Blues12 - Rocky Mountain Blues.wav

    Peak level 76.0 %
    Track quality 99.9 %
    Copy CRC 0E401B0C
    Copy OK

    Track 13

    Filename C:My RipsLightnin' Hopkins - Double Blues13 - I Mean Goodbye.wav

    Peak level 63.8 %
    Track quality 100.0 %
    Copy CRC 9CE74F17
    Copy OK

    Track 14

    Filename C:My RipsLightnin' Hopkins - Double Blues14 - The Howling Wolf.wav

    Peak level 74.4 %
    Track quality 100.0 %
    Copy CRC 93F9B16F
    Copy OK

    Track 15

    Filename C:My RipsLightnin' Hopkins - Double Blues15 - Black Ghost Blues.wav

    Peak level 60.2 %
    Track quality 100.0 %
    Copy CRC AA4B6E05
    Copy OK

    Track 16

    Filename C:My RipsLightnin' Hopkins - Double Blues16 - Darling, Do You Remember Me .wav

    Peak level 54.1 %
    Track quality 100.0 %
    Copy CRC 1337D994
    Copy OK

    Track 17

    Filename C:My RipsLightnin' Hopkins - Double Blues17 - Lonesome Graveyard.wav

    Peak level 56.6 %
    Track quality 99.9 %
    Copy CRC 2C46F5C0
    Copy OK

    No errors occurred

    End of status report


    Dynamic Range Analysis
    foobar2000 1.2.6 / Dynamic Range Meter 1.1.1
    log date: 2013-06-02 18:55:22

    --------------------------------------------------------------------------------
    Analyzed: Lightnin' Hopkins / Double Blues
    --------------------------------------------------------------------------------

    DR Peak RMS Duration Track
    --------------------------------------------------------------------------------
    DR15 -1.89 dB -20.13 dB 4:18 01-Let's Go Sit On the Lawn
    DR15 -2.56 dB -19.83 dB 3:57 02-I'm Taking A Devil of a Chance
    DR14 -1.56 dB -19.40 dB 4:40 03-I Got Tired
    DR15 -0.71 dB -19.62 dB 6:46 04-I Asked The Bossman
    DR14 -2.56 dB -19.63 dB 3:39 05-Just A Wristwatch On My Arm
    DR15 -1.49 dB -20.37 dB 5:56 06-I Woke Up This Morning
    DR14 -0.92 dB -21.26 dB 5:14 07-I Was Standing on 75 Highway
    DR15 -2.76 dB -21.30 dB 5:59 08-I'm Going To Build Me a Heaven of My Own
    DR13 -2.57 dB -18.41 dB 3:24 09-My Babe
    DR15 -3.54 dB -21.51 dB 3:32 10-Too Many Drivers
    DR15 -4.03 dB -22.66 dB 4:52 11-I'm A Crawling Black Snake
    DR13 -2.37 dB -19.05 dB 3:55 12-Rocky Mountain Blues
    DR13 -3.90 dB -18.70 dB 3:04 13-I Mean Goodbye
    DR13 -2.57 dB -20.08 dB 3:57 14-The Howling Wolf
    DR15 -4.40 dB -22.37 dB 3:34 15-Black Ghost Blues
    DR15 -5.32 dB -23.22 dB 3:43 16-Darling, Do You Remember Me?
    DR15 -4.94 dB -23.18 dB 5:30 17-Lonesome Graveyard
    --------------------------------------------------------------------------------

    Number of tracks: 17
    Official DR value: DR14

    Samplerate: 44100 Hz
    Channels: 2
    Bits per sample: 16
    Bitrate: 602 kbps
    Codec: FLAC
    ================================================================================




    In case you encounter dead links in any of my posts, please send me a private message !!!!

    NO mirrors and/or direct links in your comments, please !!!!

    This is not my Rip,not my Scans! All thanks go to original releaser!

    ****Visit My Blog****

    Uploaded

    Cloudzer

    DepositFiles

    ***** Pass: countryfreak *****


    Free Full Download Lightnin Hopkins - Double Blues form MediaFire.com link RapidShare, Uploaded.to, Zippyshare, FileSonic, turbobit.net, ul.to, ORON, DepositFiles, rapidgator.net, letitbit.net, extabit.com, filefactory.com. Lightnin Hopkins - Double Blues (1973/1989) Torrent Download with keygen, crack, serial, 1080p, hdrip, 720p, 2015, 2016

    Rolling Stones: Vive La France! - Pavilon de Paris Paris France (1976)


    Rolling Stones: Vive La France! - Pavilon de Paris, Paris, France (1976)
    Rock and roll/Blues rock/Pop rock | Mp3 320 kbps | 230 MB
    Excellent stereo soundboard (Angie very good audience). Vinyl Gang released five titles with material from this show, Vive La France(VGP-046) . “Jumping Jack Flash” from the June 25th, 1990 show at Parc de Princes...

    Johnny Winter - Setlist: The Very Best Of Johnny Winter Live (2011/2013)


    Johnny Winter - Setlist: The Very Best Of Johnny Winter Live (2011/2013)
    EAC | FLAC | Image (Cue&Log) ~ 559 Mb (incl 5%) | Mp3 (CBR320/Stereo) ~ 229 Mb (incl 5%) | Scans included
    Genre: Blues Rock, Blues | Label: Sony Music | # 88883722802 | Time: 01:11:43
    “With a fast, gritty, and furious slide and electric guitar style, Johnny Winter fused the blues to its rock...

    Tommy Emmanuel & Frank Vignola - Just Between Frets (2009)


    Tommy Emmanuel & Frank Vignola - Just Between Frets (2009)
    MP3 HQ 320 kbps | front cover | 00:53:30 | 109 MB (+3%)
    Acoustic Jazz/Blues/Swing, Instrumental | Label: Solid Air Records
    Twice Grammy nominated Tommy Emmanuel and Americas own Jazz sensation Frank Vignola turn many a well known tune inside out with their virtuosity and unique chemistry. This don't miss CD...

    Frankie Laine - I Believe (Boxed Set 6CD) (2001)


    Frankie Laine - I Believe (Boxed Set 6CD) (2001)
    MP3 CBR 256kbps | Label: Bear Family, Germany | Release: 2001 | 217:34 min | 626 MB
    Genre: Jazz, Easy Listening, Vocal, Contemporary Blues
    “The 2nd part of Bear Family's Complete Frankie Laine career retrospective follows the great singer and his producer, Mitch Miller, to Columbia Records, where they went together...

    Sue Foley - Change (2004)


    Sue Foley - Change (2004)
    EAC Rip | FLAC (Image) + CUE + LOG | 337 MB | Covers Included
    Genre: Blues | Label: Ruf | Catalog Number: 1096 | Release Date: Aug 24, 2004 | RAR 5% Rec. | RS.com + HF.com
    “Unplugged, but electrifying nonetheless, Canada-based blueswoman Sue Foley's first live disc was recorded in one take with a band that hadn't rehearsed the set....

    VA - Best Of Bossa Lounge 2 2CD (2010)


    VA - Best Of Bossa Lounge 2 2CD
    Lo-Fi, Lounge, Jazzy, Bossa | mp3 190.8kbps avg | Playtime: 152:32 min | Size: 208,5 MB
    Label: Chet Records | Tracks: 40 | Rls.date: 2010-12-01
    Finest selection of 40 great Classics of Pop History in a Bossa style! - Excellent versions of world hits by Madonna, Sade, Tears For Fears, INXS, U2, Michael Jackson, Rolling Stones, Rod Stewart, Human...

    V.A. - The Perfect Guitar Collection: 25 Original Albums (2012) 25 CD Box Set


    V.A. - The Perfect Guitar Collection: 25 Original Albums (2012) [25 CD Box Set]
    EAC Rip | FLAC: Image+Cue+Log | 7.3 GB | MP3 CBR 320 kbps | 3.2 GB | Scans | 459.15 MB | TTime: 20:45:04
    Genre: Jazz, Blues, Rock, Fusion, Instrumental | Label: Columbia/Sony Music | Cat.#: 88725413792
    “This guitar compilation provides you with a knock-out collection of full albums by guitar...

    The Love Unlimited Orchestra (Barry White) - Rhapsody In White (1974)


    The Love Unlimited Orchestra (Barry White) - Rhapsody In White (1974)
    EAC | FLAC | Image (Cue&Log) ~ 265 Mb (incl 5%) | Mp3 (CBR320) ~ 110 Mb (incl 5%) | Scans included
    Genre: Funk, Disco, Soul, Jazz-Funk | Label: Mercury | # 314 558 201-2 | Time: 00:38:54
    “The press may have dubbed Barry White "the walrus of love," but he was certainly the guru of...

    Delbert McClinton - Room To Breath (2002)


    Delbert McClinton - Room To Breath (2002)
    EAC Rip | FLAC, IMG+CUE, LOG | 287 MB | 42,20 min. | Covers
    Label: New West Records | Rock, Blues-Rock, Country | RAR 3% Rec.
    “Delbert McClinton (born 4 November 1940, in Lubbock, Texas) is a Grammy Award-winning singer-songwriter and musician. Active as a side-man since at least 1962 and as a band leader since 1972, he has...

    Johnny Mastro & Mamas Boys - Lukes Dream (2012)


    Johnny Mastro & Mama's Boys - Luke's Dream (2012)
    EAC Rip | FLAC (image+.cue+log) - 401 MB | MP3 CBR 320 kbps (LAME 3.93) - 146 MB | Covers included
    Genre: Blues | RAR 3% Rec. | Label: Rip Cat Records (RIC 1109)
    “Johnny Mastro And The Mama's Boys follow up their genre stretching Beautiful Chaos with a step further on down the path of experimental...

    Add comment
    Try to express their thoughts correctly and succinctly


Bryan Adams - Discography (1979-2015)
Bryan Adams - Discography 1979-2015 (28 Albums, 52CD+23 Singles) Genre: Rock ||
VA - Masterpieces of Chillout (2015)
Masterpieces of Chillout (2015) Label: Jizoom | Genre: Downtempo, Chillout,
Barrett Baber - The Complete Season 9 Collection (The Voice
Release Name: Barrett Baber - The Complete Season 9 Collection (The Voice
John Williams - Star Wars: The Force Awakens - Original Motion
John Williams - Star Wars: The Force Awakens - Original Motion Picture
Lisa Riley's Honesty Diet
Lisa Riley's Honesty Diet by Lisa Riley English | December 28th, 2017 | ASIN:
Start Your Own Consulting Business
Start Your Own Consulting Business (Scan) by Entrepreneur Press English | 1
Adobe Photoshop CC Classroom in a Book (2014 release)
Adobe Photoshop CC Classroom in a Book (2014 release) by Andrew Faulkner
The Backyard Homestead Book of Building Projects
Spike Carlsen, "The Backyard Homestead Book of Building Projects: 76 Useful
Big Fish Audio Lion Reggae Productions KONTAKT 180412
Big Fish Audio Lion Reggae Productions KONTAKT 180412 Big Fish Audio Lion
Altair HyperWorks FEKO 2017.0 180412
Altair HyperWorks FEKO 2017.0 180412 Altair HyperWorks FEKO 2017.0 | 980 MB
Solid Angle Maya To Arnold 1.4.2 For Maya /2015/2016/2016.5/2017
Solid Angle Maya To Arnold 1.4.2 For Maya /2015/2016/2016.5/2017 180412
1000 OpenType Fonts 4.0 Multilingual (Win/Mac) 180412
1000 OpenType Fonts 4.0 Multilingual (Win/Mac) 180412 1000 OpenType Fonts
Abstract oil painting 1 - 5 UHQ JPEG
Abstract oil painting 1 - 5 UHQ JPEG 5 UHQ JPEG | 5760X3840 | 300 DPI | 28 MB
Juice and Fresh UHQ JPG
Juice and Fresh UHQ JPG 10 UHQ JPG | up to 8000x5323 Pixels | 102 Mb
Girl in abstraction - 6 UHQ JPEG
Girl in abstraction - 6 UHQ JPEG 6 UHQ JPEG | 5915X4212 | 300 DPI | 60 MB
Flyer Psd Template - Farmer Flyer Business
Flyer Psd Template - Farmer Flyer Business PSD | 1275x1875 PIX | fontinfo |

Download Torrents. Fast and Free Torrent Downloads.

Not Store Any File In Server. The Links Are Provided Solely By This Site's Users.

If You Have Any Doubts About Legality Of Content, Feel Free To Contact US.
© 2015 - 2016