Torrent HaHa

Free download any torrents what you need
    New Download Links
    Speed
     kbps
     kbps
     kbps

    Ray Conniff - You Are The Sunshine Of My Life / Laughter In The Rain (2 LP in 1 CD 2005 ) Re Up

    Category: Music data: 20-12-2015, 20:25
    Rating:
    (votes: 0)

    Ray Conniff
    You Are The Sunshine Of My Life / Laughter In The Rain (2 LP in 1 CD , 2005 )

    EAC Rip | FLAC-TRACKS+CUE+LOG | 1CD | Scans | 69 Min. | 440 MB
    Label: Sony Music Collectables / Catalogue: COL-CD-7647 /
    Easy Listening Pop / LP´s Originally Released in 1973 - 75

    One of the talented musical arrangers is Ray Conniff, hands down in my opinion. This collection proves that in these selections of songs popular in the early 1970s. I especially enjoyed his renditions of Dueling Voices and the theme from 2001:A Space Odyssey! A nice two fer set of Conniff's best!



    At a time where almost all of Ray Conniff's CD collections earn very high ratings, this "two-fer" is an obvious "Five." These are some of Ray's most memorable and mellow seventies and eighties offerings, and well deserving of the true fan's attention and investment.


    Track Listings :

    1. You Are the Sunshine of My Life
    2. The Twelfth of Never
    3. Dueling Voices (Dueling Banjos)
    4. Neither One of Us (Wants to Be the First to Say Goodbye)
    5. Sing
    6. Peaceful
    7. Tie a Yellow Ribbon 'Round the Old Oak Tree
    8. There Was a Girl/Killing Me Softly With His Song
    9. The Right Thing to Do
    10. The Night the Lights Went Out in Georgia
    11. Bah Bah Conniff Sprach (Zarathustra)
    12. Laughter in the Rain
    13. I Honestly Love You
    14. Sundown
    15. Angie Baby
    16. Mandy
    17. Seasons in the Sun
    18. Eres Tu
    19. Cat's in the Cradle
    20. Feel Like Makin' Love
    21. (You're) Having My Baby

    Log File :

    EAC LOG
    Exact Audio Copy V1.0 beta 3 from 29. August 2011

    EAC extraction logfile from 30. May 2015, 12:54

    Ray Conniff / You Are The Sunshine Of My Life | Laughter In The Rain

    Used drive : SONY DVD RW DRU-840A Adapter: 0 ID: 1

    Read mode : Secure
    Utilize accurate stream : Yes
    Defeat audio cache : Yes
    Make use of C2 pointers : No

    Read offset correction : 6
    Overread into Lead-In and Lead-Out : No
    Fill up missing offset samples with silence : Yes
    Delete leading and trailing silent blocks : No
    Null samples used in CRC calculations : Yes
    Used interface : Native Win32 interface for Win NT & 2000
    Gap handling : Not detected, thus appended to previous track

    Used output format : User Defined Encoder
    Selected bitrate : 320 kBit/s
    Quality : High
    Add ID3 tag : No
    Command line compressor : C:Archivos de programaExact Audio CopyFLACFLAC.EXE
    Additional command line options : -6 -V -T "ARTIST=%artist%" -T "TITLE=%title%" -T "ALBUM=%albumtitle%" -T "DATE=%year%" -T "TRACKNUMBER=%tracknr%" -T "GENRE=%genre%" -T "COMMENT=%comment%" -T "BAND=%albuminterpret%" -T "ALBUMARTIST=%albuminterpret%" -T "COMPOSER=%composer%" %haslyrics%--tag-from-file=LYRICS="%lyricsfile%"%haslyrics% -T "DISCNUMBER=%cdnumber%" -T "TOTALDISCS=%totalcds%" -T "TOTALTRACKS=%numtracks%" %hascover%--picture="%coverfile%"%hascover% %source% -o %dest% TOC of the extracted CD

    Track | Start | Length | Start sector | End sector
    ---------------------------------------------------------
    1 | 0:00.00 | 3:00.32 | 0 | 13531
    2 | 3:00.32 | 2:11.68 | 13532 | 23424
    3 | 5:12.25 | 3:11.12 | 23425 | 37761
    4 | 8:23.37 | 3:32.08 | 37762 | 53669
    5 | 11:55.45 | 2:38.45 | 53670 | 65564
    6 | 14:34.15 | 3:31.42 | 65565 | 81431
    7 | 18:05.57 | 3:20.05 | 81432 | 96436
    8 | 21:25.62 | 3:28.38 | 96437 | 112074
    9 | 24:54.25 | 2:55.32 | 112075 | 125231
    10 | 27:49.57 | 4:03.48 | 125232 | 143504
    11 | 31:53.30 | 4:21.60 | 143505 | 163139
    12 | 36:15.15 | 3:13.55 | 163140 | 177669
    13 | 39:28.70 | 3:36.20 | 177670 | 193889
    14 | 43:05.15 | 3:33.65 | 193890 | 209929
    15 | 46:39.05 | 3:30.67 | 209930 | 225746
    16 | 50:09.72 | 3:10.58 | 225747 | 240054
    17 | 53:20.55 | 3:33.35 | 240055 | 256064
    18 | 56:54.15 | 2:48.60 | 256065 | 268724
    19 | 59:43.00 | 3:48.65 | 268725 | 285889
    20 | 63:31.65 | 3:08.45 | 285890 | 300034
    21 | 66:40.35 | 2:50.70 | 300035 | 312854 Track 1

    Filename E:MUSICMy MusicRe subirRay ConniffRay Conniff - You Are The Sunshine Of My Life - Laughter in The RainCD1 You Are The Sunshine Of My Life.wav

    Peak level 90.8 %
    Extraction speed 1.8 X
    Track quality 100.0 %
    Test CRC 31FC31A9
    Copy CRC 31FC31A9
    Cannot be verified as accurate (confidence 4) [11CD6D39], AccurateRip returned [2BFB46E9] (AR v2)
    Copy OK

    Track 2

    Filename E:MUSICMy MusicRe subirRay ConniffRay Conniff - You Are The Sunshine Of My Life - Laughter in The RainCD2 The Twelfth Of Never.wav

    Peak level 89.0 %
    Extraction speed 1.8 X
    Track quality 100.0 %
    Test CRC 862FD0F0
    Copy CRC 862FD0F0
    Cannot be verified as accurate (confidence 4) [038EEA02], AccurateRip returned [6429FDEB] (AR v2)
    Copy OK

    Track 3

    Filename E:MUSICMy MusicRe subirRay ConniffRay Conniff - You Are The Sunshine Of My Life - Laughter in The RainCD3 Dueling Voices {Dueling Banjos}.wav

    Peak level 91.8 %
    Extraction speed 2.1 X
    Track quality 100.0 %
    Test CRC 05C39AB2
    Copy CRC 05C39AB2
    Cannot be verified as accurate (confidence 4) [69EAC497], AccurateRip returned [9BF95E6A] (AR v2)
    Copy OK

    Track 4

    Filename E:MUSICMy MusicRe subirRay ConniffRay Conniff - You Are The Sunshine Of My Life - Laughter in The RainCD4 Neither One Of Us {Wants To Be The First To Say Goodbye}.wav

    Peak level 88.8 %
    Extraction speed 2.2 X
    Track quality 100.0 %
    Test CRC 31103372
    Copy CRC 31103372
    Cannot be verified as accurate (confidence 4) [45778262], AccurateRip returned [461990FB] (AR v2)
    Copy OK

    Track 5

    Filename E:MUSICMy MusicRe subirRay ConniffRay Conniff - You Are The Sunshine Of My Life - Laughter in The RainCD5 Sing.wav

    Peak level 91.7 %
    Extraction speed 2.2 X
    Track quality 100.0 %
    Test CRC 75FA33C1
    Copy CRC 75FA33C1
    Cannot be verified as accurate (confidence 4) [DC5E70DA], AccurateRip returned [89C3810E] (AR v2)
    Copy OK

    Track 6

    Filename E:MUSICMy MusicRe subirRay ConniffRay Conniff - You Are The Sunshine Of My Life - Laughter in The RainCD6 Peaceful.wav

    Peak level 91.3 %
    Extraction speed 2.5 X
    Track quality 100.0 %
    Test CRC 352FC2DA
    Copy CRC 352FC2DA
    Cannot be verified as accurate (confidence 4) [74A0949C], AccurateRip returned [E2AB3392] (AR v2)
    Copy OK

    Track 7

    Filename E:MUSICMy MusicRe subirRay ConniffRay Conniff - You Are The Sunshine Of My Life - Laughter in The RainCD7 Tie A Yellow Ribbon 'Round The Old Oak Tree.wav

    Peak level 91.3 %
    Extraction speed 2.5 X
    Track quality 100.0 %
    Test CRC 04BF849B
    Copy CRC 04BF849B
    Cannot be verified as accurate (confidence 4) [09EED67C], AccurateRip returned [24EE242A] (AR v2)
    Copy OK

    Track 8

    Filename E:MUSICMy MusicRe subirRay ConniffRay Conniff - You Are The Sunshine Of My Life - Laughter in The RainCD8 There Was A Girl ! Killing Me Softly With His Song.wav

    Peak level 90.9 %
    Extraction speed 2.1 X
    Track quality 99.9 %
    Test CRC F2951AFE
    Copy CRC F2951AFE
    Cannot be verified as accurate (confidence 4) [35022D4E], AccurateRip returned [CB7ED743] (AR v2)
    Copy OK

    Track 9

    Filename E:MUSICMy MusicRe subirRay ConniffRay Conniff - You Are The Sunshine Of My Life - Laughter in The RainCD9 The Right Thing To Do.wav

    Peak level 90.2 %
    Extraction speed 2.7 X
    Track quality 100.0 %
    Test CRC BE1024EB
    Copy CRC BE1024EB
    Cannot be verified as accurate (confidence 4) [44C8FC30], AccurateRip returned [C0C2954F] (AR v2)
    Copy OK

    Track 10

    Filename E:MUSICMy MusicRe subirRay ConniffRay Conniff - You Are The Sunshine Of My Life - Laughter in The RainCD10 The Night The Lights Went Out In Georgia.wav

    Peak level 92.1 %
    Extraction speed 3.0 X
    Track quality 100.0 %
    Test CRC BFECE609
    Copy CRC BFECE609
    Cannot be verified as accurate (confidence 4) [97B4BFFC], AccurateRip returned [11B3E0C0] (AR v2)
    Copy OK

    Track 11

    Filename E:MUSICMy MusicRe subirRay ConniffRay Conniff - You Are The Sunshine Of My Life - Laughter in The RainCD11 Bah Bah Conniff Sprach {Zarathustra}.wav

    Peak level 91.3 %
    Extraction speed 3.1 X
    Track quality 100.0 %
    Test CRC EED8B284
    Copy CRC EED8B284
    Cannot be verified as accurate (confidence 4) [1A84D5B4], AccurateRip returned [B915E2C5] (AR v2)
    Copy OK

    Track 12

    Filename E:MUSICMy MusicRe subirRay ConniffRay Conniff - You Are The Sunshine Of My Life - Laughter in The RainCD12 Laughter In The Rain.wav

    Peak level 92.3 %
    Extraction speed 3.1 X
    Track quality 100.0 %
    Test CRC B0549D59
    Copy CRC B0549D59
    Cannot be verified as accurate (confidence 4) [AA700639], AccurateRip returned [31BD735E] (AR v2)
    Copy OK

    Track 13

    Filename E:MUSICMy MusicRe subirRay ConniffRay Conniff - You Are The Sunshine Of My Life - Laughter in The RainCD13 I Honestly Love You.wav

    Peak level 91.4 %
    Extraction speed 3.2 X
    Track quality 100.0 %
    Test CRC CD2DB712
    Copy CRC CD2DB712
    Cannot be verified as accurate (confidence 4) [EA41CB33], AccurateRip returned [1A27966A] (AR v2)
    Copy OK

    Track 14

    Filename E:MUSICMy MusicRe subirRay ConniffRay Conniff - You Are The Sunshine Of My Life - Laughter in The RainCD14 Sundown.wav

    Peak level 89.6 %
    Extraction speed 3.3 X
    Track quality 100.0 %
    Test CRC 889CC1D3
    Copy CRC 889CC1D3
    Cannot be verified as accurate (confidence 4) [FADB3A04], AccurateRip returned [A329A024] (AR v2)
    Copy OK

    Track 15

    Filename E:MUSICMy MusicRe subirRay ConniffRay Conniff - You Are The Sunshine Of My Life - Laughter in The RainCD15 Angie Baby.wav

    Peak level 92.3 %
    Extraction speed 3.4 X
    Track quality 100.0 %
    Test CRC E3B3C3F2
    Copy CRC E3B3C3F2
    Cannot be verified as accurate (confidence 4) [FFFFED8D], AccurateRip returned [9651E10A] (AR v2)
    Copy OK

    Track 16

    Filename E:MUSICMy MusicRe subirRay ConniffRay Conniff - You Are The Sunshine Of My Life - Laughter in The RainCD16 Mandy.wav

    Peak level 92.3 %
    Extraction speed 3.4 X
    Track quality 100.0 %
    Test CRC 309F27BC
    Copy CRC 309F27BC
    Cannot be verified as accurate (confidence 4) [B0FD6EDD], AccurateRip returned [30E384F0] (AR v2)
    Copy OK

    Track 17

    Filename E:MUSICMy MusicRe subirRay ConniffRay Conniff - You Are The Sunshine Of My Life - Laughter in The RainCD17 Seasons In The Sun.wav

    Peak level 92.3 %
    Extraction speed 2.5 X
    Track quality 99.9 %
    Test CRC 4FB9BAB4
    Copy CRC 4FB9BAB4
    Cannot be verified as accurate (confidence 4) [A25BCFF7], AccurateRip returned [C3CD16A1] (AR v2)
    Copy OK

    Track 18

    Filename E:MUSICMy MusicRe subirRay ConniffRay Conniff - You Are The Sunshine Of My Life - Laughter in The RainCD18 Eres Tu.wav

    Peak level 87.4 %
    Extraction speed 3.5 X
    Track quality 100.0 %
    Test CRC 94BF9E67
    Copy CRC 94BF9E67
    Cannot be verified as accurate (confidence 4) [491E31D0], AccurateRip returned [16330737] (AR v2)
    Copy OK

    Track 19

    Filename E:MUSICMy MusicRe subirRay ConniffRay Conniff - You Are The Sunshine Of My Life - Laughter in The RainCD19 Cat's In The Cradle.wav

    Peak level 90.4 %
    Extraction speed 3.7 X
    Track quality 100.0 %
    Test CRC FF5605B2
    Copy CRC FF5605B2
    Cannot be verified as accurate (confidence 4) [0C175C05], AccurateRip returned [8DAAD724] (AR v2)
    Copy OK

    Track 20

    Filename E:MUSICMy MusicRe subirRay ConniffRay Conniff - You Are The Sunshine Of My Life - Laughter in The RainCD20 Feel Like Makin' Love.wav

    Peak level 88.9 %
    Extraction speed 3.7 X
    Track quality 100.0 %
    Test CRC B15B38F7
    Copy CRC B15B38F7
    Cannot be verified as accurate (confidence 4) [DFCCCE4B], AccurateRip returned [8B154DBA] (AR v2)
    Copy OK

    Track 21

    Filename E:MUSICMy MusicRe subirRay ConniffRay Conniff - You Are The Sunshine Of My Life - Laughter in The RainCD21 {You're} Having My Baby.wav

    Peak level 87.6 %
    Extraction speed 3.7 X
    Track quality 100.0 %
    Test CRC A74350A2
    Copy CRC A74350A2
    Cannot be verified as accurate (confidence 4) [D5CFBB7F], AccurateRip returned [852A13D4] (AR v2)
    Copy OK No tracks could be verified as accurate
    You may have a different pressing from the one(s) in the database

    No errors occurred

    End of status report

    ==== Log checksum 8FD0E0F4478CCCC5A9A371707FA16D38CA0C5A54A3F29573AB92D48E8E48A374 ====

    ------------------------------------------------------------

    Exact Audio Copy V1.0 beta 3 from 29. August 2011

    EAC extraction logfile from 30. May 2015, 12:54

    Ray Conniff / You Are The Sunshine Of My Life | Laughter In The Rain

    Used drive : SONY DVD RW DRU-840A Adapter: 0 ID: 1

    Read mode : Secure
    Utilize accurate stream : Yes
    Defeat audio cache : Yes
    Make use of C2 pointers : No

    Read offset correction : 6
    Overread into Lead-In and Lead-Out : No
    Fill up missing offset samples with silence : Yes
    Delete leading and trailing silent blocks : No
    Null samples used in CRC calculations : Yes
    Used interface : Native Win32 interface for Win NT & 2000
    Gap handling : Not detected, thus appended to previous track

    Used output format : User Defined Encoder
    Selected bitrate : 320 kBit/s
    Quality : High
    Add ID3 tag : No
    Command line compressor : C:Archivos de programaExact Audio CopyFLACFLAC.EXE
    Additional command line options : -6 -V -T "ARTIST=%artist%" -T "TITLE=%title%" -T "ALBUM=%albumtitle%" -T "DATE=%year%" -T "TRACKNUMBER=%tracknr%" -T "GENRE=%genre%" -T "COMMENT=%comment%" -T "BAND=%albuminterpret%" -T "ALBUMARTIST=%albuminterpret%" -T "COMPOSER=%composer%" %haslyrics%--tag-from-file=LYRICS="%lyricsfile%"%haslyrics% -T "DISCNUMBER=%cdnumber%" -T "TOTALDISCS=%totalcds%" -T "TOTALTRACKS=%numtracks%" %hascover%--picture="%coverfile%"%hascover% %source% -o %dest% TOC of the extracted CD

    Track | Start | Length | Start sector | End sector
    ---------------------------------------------------------
    1 | 0:00.00 | 3:00.32 | 0 | 13531
    2 | 3:00.32 | 2:11.68 | 13532 | 23424
    3 | 5:12.25 | 3:11.12 | 23425 | 37761
    4 | 8:23.37 | 3:32.08 | 37762 | 53669
    5 | 11:55.45 | 2:38.45 | 53670 | 65564
    6 | 14:34.15 | 3:31.42 | 65565 | 81431
    7 | 18:05.57 | 3:20.05 | 81432 | 96436
    8 | 21:25.62 | 3:28.38 | 96437 | 112074
    9 | 24:54.25 | 2:55.32 | 112075 | 125231
    10 | 27:49.57 | 4:03.48 | 125232 | 143504
    11 | 31:53.30 | 4:21.60 | 143505 | 163139
    12 | 36:15.15 | 3:13.55 | 163140 | 177669
    13 | 39:28.70 | 3:36.20 | 177670 | 193889
    14 | 43:05.15 | 3:33.65 | 193890 | 209929
    15 | 46:39.05 | 3:30.67 | 209930 | 225746
    16 | 50:09.72 | 3:10.58 | 225747 | 240054
    17 | 53:20.55 | 3:33.35 | 240055 | 256064
    18 | 56:54.15 | 2:48.60 | 256065 | 268724
    19 | 59:43.00 | 3:48.65 | 268725 | 285889
    20 | 63:31.65 | 3:08.45 | 285890 | 300034
    21 | 66:40.35 | 2:50.70 | 300035 | 312854 Track 1

    Filename E:MUSICMy MusicRe subirRay ConniffRay Conniff - You Are The Sunshine Of My Life - Laughter in The RainCD1 You Are The Sunshine Of My Life.wav

    Peak level 90.8 %
    Extraction speed 1.8 X
    Track quality 100.0 %
    Test CRC 31FC31A9
    Copy CRC 31FC31A9
    Cannot be verified as accurate (confidence 4) [11CD6D39], AccurateRip returned [2BFB46E9] (AR v2)
    Copy OK

    Track 2

    Filename E:MUSICMy MusicRe subirRay ConniffRay Conniff - You Are The Sunshine Of My Life - Laughter in The RainCD2 The Twelfth Of Never.wav

    Peak level 89.0 %
    Extraction speed 1.8 X
    Track quality 100.0 %
    Test CRC 862FD0F0
    Copy CRC 862FD0F0
    Cannot be verified as accurate (confidence 4) [038EEA02], AccurateRip returned [6429FDEB] (AR v2)
    Copy OK

    Track 3

    Filename E:MUSICMy MusicRe subirRay ConniffRay Conniff - You Are The Sunshine Of My Life - Laughter in The RainCD3 Dueling Voices {Dueling Banjos}.wav

    Peak level 91.8 %
    Extraction speed 2.1 X
    Track quality 100.0 %
    Test CRC 05C39AB2
    Copy CRC 05C39AB2
    Cannot be verified as accurate (confidence 4) [69EAC497], AccurateRip returned [9BF95E6A] (AR v2)
    Copy OK

    Track 4

    Filename E:MUSICMy MusicRe subirRay ConniffRay Conniff - You Are The Sunshine Of My Life - Laughter in The RainCD4 Neither One Of Us {Wants To Be The First To Say Goodbye}.wav

    Peak level 88.8 %
    Extraction speed 2.2 X
    Track quality 100.0 %
    Test CRC 31103372
    Copy CRC 31103372
    Cannot be verified as accurate (confidence 4) [45778262], AccurateRip returned [461990FB] (AR v2)
    Copy OK

    Track 5

    Filename E:MUSICMy MusicRe subirRay ConniffRay Conniff - You Are The Sunshine Of My Life - Laughter in The RainCD5 Sing.wav

    Peak level 91.7 %
    Extraction speed 2.2 X
    Track quality 100.0 %
    Test CRC 75FA33C1
    Copy CRC 75FA33C1
    Cannot be verified as accurate (confidence 4) [DC5E70DA], AccurateRip returned [89C3810E] (AR v2)
    Copy OK

    Track 6

    Filename E:MUSICMy MusicRe subirRay ConniffRay Conniff - You Are The Sunshine Of My Life - Laughter in The RainCD6 Peaceful.wav

    Peak level 91.3 %
    Extraction speed 2.5 X
    Track quality 100.0 %
    Test CRC 352FC2DA
    Copy CRC 352FC2DA
    Cannot be verified as accurate (confidence 4) [74A0949C], AccurateRip returned [E2AB3392] (AR v2)
    Copy OK

    Track 7

    Filename E:MUSICMy MusicRe subirRay ConniffRay Conniff - You Are The Sunshine Of My Life - Laughter in The RainCD7 Tie A Yellow Ribbon 'Round The Old Oak Tree.wav

    Peak level 91.3 %
    Extraction speed 2.5 X
    Track quality 100.0 %
    Test CRC 04BF849B
    Copy CRC 04BF849B
    Cannot be verified as accurate (confidence 4) [09EED67C], AccurateRip returned [24EE242A] (AR v2)
    Copy OK

    Track 8

    Filename E:MUSICMy MusicRe subirRay ConniffRay Conniff - You Are The Sunshine Of My Life - Laughter in The RainCD8 There Was A Girl ! Killing Me Softly With His Song.wav

    Peak level 90.9 %
    Extraction speed 2.1 X
    Track quality 99.9 %
    Test CRC F2951AFE
    Copy CRC F2951AFE
    Cannot be verified as accurate (confidence 4) [35022D4E], AccurateRip returned [CB7ED743] (AR v2)
    Copy OK

    Track 9

    Filename E:MUSICMy MusicRe subirRay ConniffRay Conniff - You Are The Sunshine Of My Life - Laughter in The RainCD9 The Right Thing To Do.wav

    Peak level 90.2 %
    Extraction speed 2.7 X
    Track quality 100.0 %
    Test CRC BE1024EB
    Copy CRC BE1024EB
    Cannot be verified as accurate (confidence 4) [44C8FC30], AccurateRip returned [C0C2954F] (AR v2)
    Copy OK

    Track 10

    Filename E:MUSICMy MusicRe subirRay ConniffRay Conniff - You Are The Sunshine Of My Life - Laughter in The RainCD10 The Night The Lights Went Out In Georgia.wav

    Peak level 92.1 %
    Extraction speed 3.0 X
    Track quality 100.0 %
    Test CRC BFECE609
    Copy CRC BFECE609
    Cannot be verified as accurate (confidence 4) [97B4BFFC], AccurateRip returned [11B3E0C0] (AR v2)
    Copy OK

    Track 11

    Filename E:MUSICMy MusicRe subirRay ConniffRay Conniff - You Are The Sunshine Of My Life - Laughter in The RainCD11 Bah Bah Conniff Sprach {Zarathustra}.wav

    Peak level 91.3 %
    Extraction speed 3.1 X
    Track quality 100.0 %
    Test CRC EED8B284
    Copy CRC EED8B284
    Cannot be verified as accurate (confidence 4) [1A84D5B4], AccurateRip returned [B915E2C5] (AR v2)
    Copy OK

    Track 12

    Filename E:MUSICMy MusicRe subirRay ConniffRay Conniff - You Are The Sunshine Of My Life - Laughter in The RainCD12 Laughter In The Rain.wav

    Peak level 92.3 %
    Extraction speed 3.1 X
    Track quality 100.0 %
    Test CRC B0549D59
    Copy CRC B0549D59
    Cannot be verified as accurate (confidence 4) [AA700639], AccurateRip returned [31BD735E] (AR v2)
    Copy OK

    Track 13

    Filename E:MUSICMy MusicRe subirRay ConniffRay Conniff - You Are The Sunshine Of My Life - Laughter in The RainCD13 I Honestly Love You.wav

    Peak level 91.4 %
    Extraction speed 3.2 X
    Track quality 100.0 %
    Test CRC CD2DB712
    Copy CRC CD2DB712
    Cannot be verified as accurate (confidence 4) [EA41CB33], AccurateRip returned [1A27966A] (AR v2)
    Copy OK

    Track 14

    Filename E:MUSICMy MusicRe subirRay ConniffRay Conniff - You Are The Sunshine Of My Life - Laughter in The RainCD14 Sundown.wav

    Peak level 89.6 %
    Extraction speed 3.3 X
    Track quality 100.0 %
    Test CRC 889CC1D3
    Copy CRC 889CC1D3
    Cannot be verified as accurate (confidence 4) [FADB3A04], AccurateRip returned [A329A024] (AR v2)
    Copy OK

    Track 15

    Filename E:MUSICMy MusicRe subirRay ConniffRay Conniff - You Are The Sunshine Of My Life - Laughter in The RainCD15 Angie Baby.wav

    Peak level 92.3 %
    Extraction speed 3.4 X
    Track quality 100.0 %
    Test CRC E3B3C3F2
    Copy CRC E3B3C3F2
    Cannot be verified as accurate (confidence 4) [FFFFED8D], AccurateRip returned [9651E10A] (AR v2)
    Copy OK

    Track 16

    Filename E:MUSICMy MusicRe subirRay ConniffRay Conniff - You Are The Sunshine Of My Life - Laughter in The RainCD16 Mandy.wav

    Peak level 92.3 %
    Extraction speed 3.4 X
    Track quality 100.0 %
    Test CRC 309F27BC
    Copy CRC 309F27BC
    Cannot be verified as accurate (confidence 4) [B0FD6EDD], AccurateRip returned [30E384F0] (AR v2)
    Copy OK

    Track 17

    Filename E:MUSICMy MusicRe subirRay ConniffRay Conniff - You Are The Sunshine Of My Life - Laughter in The RainCD17 Seasons In The Sun.wav

    Peak level 92.3 %
    Extraction speed 2.5 X
    Track quality 99.9 %
    Test CRC 4FB9BAB4
    Copy CRC 4FB9BAB4
    Cannot be verified as accurate (confidence 4) [A25BCFF7], AccurateRip returned [C3CD16A1] (AR v2)
    Copy OK

    Track 18

    Filename E:MUSICMy MusicRe subirRay ConniffRay Conniff - You Are The Sunshine Of My Life - Laughter in The RainCD18 Eres Tu.wav

    Peak level 87.4 %
    Extraction speed 3.5 X
    Track quality 100.0 %
    Test CRC 94BF9E67
    Copy CRC 94BF9E67
    Cannot be verified as accurate (confidence 4) [491E31D0], AccurateRip returned [16330737] (AR v2)
    Copy OK

    Track 19

    Filename E:MUSICMy MusicRe subirRay ConniffRay Conniff - You Are The Sunshine Of My Life - Laughter in The RainCD19 Cat's In The Cradle.wav

    Peak level 90.4 %
    Extraction speed 3.7 X
    Track quality 100.0 %
    Test CRC FF5605B2
    Copy CRC FF5605B2
    Cannot be verified as accurate (confidence 4) [0C175C05], AccurateRip returned [8DAAD724] (AR v2)
    Copy OK

    Track 20

    Filename E:MUSICMy MusicRe subirRay ConniffRay Conniff - You Are The Sunshine Of My Life - Laughter in The RainCD20 Feel Like Makin' Love.wav

    Peak level 88.9 %
    Extraction speed 3.7 X
    Track quality 100.0 %
    Test CRC B15B38F7
    Copy CRC B15B38F7
    Cannot be verified as accurate (confidence 4) [DFCCCE4B], AccurateRip returned [8B154DBA] (AR v2)
    Copy OK

    Track 21

    Filename E:MUSICMy MusicRe subirRay ConniffRay Conniff - You Are The Sunshine Of My Life - Laughter in The RainCD21 {You're} Having My Baby.wav

    Peak level 87.6 %
    Extraction speed 3.7 X
    Track quality 100.0 %
    Test CRC A74350A2
    Copy CRC A74350A2
    Cannot be verified as accurate (confidence 4) [D5CFBB7F], AccurateRip returned [852A13D4] (AR v2)
    Copy OK No tracks could be verified as accurate
    You may have a different pressing from the one(s) in the database

    No errors occurred

    End of status report

    ==== Log checksum 8FD0E0F4478CCCC5A9A371707FA16D38CA0C5A54A3F29573AB92D48E8E48A374 ====




    Free Full Download Ray Conniff - You Are The Sunshine form MediaFire.com link RapidShare, Uploaded.to, Zippyshare, FileSonic, turbobit.net, ul.to, ORON, DepositFiles, rapidgator.net, letitbit.net, extabit.com, filefactory.com. Ray Conniff - You Are The Sunshine Of My Life / Laughter In The Rain (2 LP in 1 CD 2005 ) Re Up Torrent Download with keygen, crack, serial, 1080p, hdrip, 720p, 2015, 2016

    David Munyon - Slim Possibilities (1996 Stockfisch # SFR 357.6012.2)


    David Munyon - Slim Possibilities
    EAC+LOG+CUE | FLAC (tracks): 323 MB | NO Artwork | 5% Recovery Info
    Label/Cat#: Stockfisch Records # SFR 357.6012.2 | Country/Year: Germany 1996
    Genre: Folk, Acoustic, Blues | Style: Singer/Songwriter
    “"Günter Pauler created a breathtaking backing sound that the listener will be speechless about. Pauler had a little help of...

    Cory Morrow - The Good Fight (2015)


    Cory Morrow - The Good Fight (2015)
    Country | MP3 CBR 320 kbps | 00:57:45 | 136 MB
    Label: Write On Records | Release Year: 2015
    After finding himself in 2010's release of Brand New Me, Cory Morrow spent the next five years searching for the meaning of life. Becoming one with his wife brought them two boys before welcoming twin boys in the fall of 2014. Raising four boys...

    Philip Glass - Music from The Hours (2004) Performed by Michael Riesman


    Philip Glass - Music from 'The Hours' (2004) Performed by Michael Riesman
    EAC | FLAC | Image (Cue&Log) ~ 220 Mb (incl 5%) | Mp3 (CBR320) ~ 171 Mb (incl 5%) | Scans included
    Genre: Classical, Minimalism, Score | Label: Orange Mountain Music | # 0012 | Time: 00:57:25
    “In 2002 Philip Glass composed the soundtrack score to the Stephen Daldry film "The...

    John Lee Hooker - The Very Best Of John Lee Hooker (2009) 2CD Remastered


    John Lee Hooker - The Very Best Of John Lee Hooker (2009)
    EAC Rip | FLAC (Img) + Cue + Log ~ 664 Mb | MP3 CBR320 ~ 309 Mb
    Scans (PNG) ~ 55 Mb | RAR 5% Recovery
    Blues | Not Now Music | NOT2CD288
    “John Lee Hooker was an American blues singer-songwriter and guitarist, born near Clarksdale, Mississippi. Hooker began his life as the son of a sharecropper, William...

    Ray Conniff - The Singles Collection Volume 1 (2005) RE-UP


    Ray Conniff
    The Singles Collection, Volume 1 (2005)
    EAC Rip | FLAC-TRACKS+CUE+LOG | ADD Stereo | 1CD | SCANS | 68 Min | 423 MB
    Label: Sony Music Collectables |Catalogue : COL-CD-7697
    Easy Listening / Pop
    “I never imagined this would come true: A CD with a good selection of Ray Conniff's unique singles. I had all these tunes in vynil, most of them in...

    Ray Conniff - Jean / Bridge Over Troubled Water (2 LP on 1 CD 2002) Re-Up


    Ray Conniff
    Jean / Bridge Over Troubled Water (2 LP on 1 CD , 2002)
    EAC Rip | FLAC+CUE+LOG | 1CD | Scans | 65Min. | 420mb
    Easy Listening Pop /LP Originally released in 1969
    Label: Sony Music Collectables / Catalogue: COL-CD-7457
    “Ray released these two albums in about 1969 and 1970 respectively. The quality and sound are first rate in these CD's. Good...

    Steve Cobby - Everliving (2015)


    Steve Cobby - Everliving (2015)
    MP3 CBR 320 kbps | Tracks: 14 | 95:12 min | 218 Mb
    Style: Electronic, Downtempo, Broken Beat, Ambient, Balearic, Nu-Jazz, Nu-Soul | Label: Declasse
    Steve Cobby is a British producer, musician, composer, and DJ, based in Kingston-upon-Hull, Yorkshire.
    After disbanding his first commercially released band Ashley & Jackson on Big Life...

    Add comment
    Try to express their thoughts correctly and succinctly


Bryan Adams - Discography (1979-2015)
Bryan Adams - Discography 1979-2015 (28 Albums, 52CD+23 Singles) Genre: Rock ||
VA - Masterpieces of Chillout (2015)
Masterpieces of Chillout (2015) Label: Jizoom | Genre: Downtempo, Chillout,
Barrett Baber - The Complete Season 9 Collection (The Voice
Release Name: Barrett Baber - The Complete Season 9 Collection (The Voice
John Williams - Star Wars: The Force Awakens - Original Motion
John Williams - Star Wars: The Force Awakens - Original Motion Picture
1.e4 vs The Sicilian II
Parimarjan Negi, "1.e4 vs The Sicilian II" 2016 | ISBN-10: 1907982574 | 400
Introductory Digital Image Processing: A Remote Sensing
Introductory Digital Image Processing: A Remote Sensing Perspective, 4th
Shackelford's Surgery of the Alimentary Tract, 2 Volume Set, 8e
Shackelford's Surgery of the Alimentary Tract, 2 Volume Set, 8e 2018 | ISBN:
Adobe Premiere Pro CS6 Classroom in a Book
Adobe Premiere Pro CS6 Classroom in a Book Published: 2012-07-19 | ISBN:
NVIDIA GeForce Experience 2.11.2.49 Beta / 2.11.2.46 Final 180422
NVIDIA GeForce Experience 2.11.2.49 Beta / 2.11.2.46 Final 180422 NVIDIA
Wonderware InduSoft Web Studio 8.0 180422
Wonderware InduSoft Web Studio 8.0 180422 Wonderware InduSoft Web Studio 8.0
Zoom Player PRO 10.0.0.100 Final 180422
Zoom Player PRO 10.0.0.100 Final 180422 Zoom Player PRO 10.0.0.100 Final |
MacCleanse 5.0.0 | MacOSX 180422
MacCleanse 5.0.0 | MacOSX 180422 MacCleanse 5.0.0 | MacOSX | 24 MB
Abstract oil painting 1 - 5 UHQ JPEG
Abstract oil painting 1 - 5 UHQ JPEG 5 UHQ JPEG | 5760X3840 | 300 DPI | 28 MB
Juice and Fresh UHQ JPG
Juice and Fresh UHQ JPG 10 UHQ JPG | up to 8000x5323 Pixels | 102 Mb
Girl in abstraction - 6 UHQ JPEG
Girl in abstraction - 6 UHQ JPEG 6 UHQ JPEG | 5915X4212 | 300 DPI | 60 MB
Flyer Psd Template - Farmer Flyer Business
Flyer Psd Template - Farmer Flyer Business PSD | 1275x1875 PIX | fontinfo |

Download Torrents. Fast and Free Torrent Downloads.

Not Store Any File In Server. The Links Are Provided Solely By This Site's Users.

If You Have Any Doubts About Legality Of Content, Feel Free To Contact US.
© 2015 - 2016