Torrent HaHa

Free download any torrents what you need
    New Download Links
    Speed
     kbps
     kbps
     kbps

    Solo - Alisa Weilerstein (2014)

    Category: Music data: 20-12-2015, 20:25
    Rating:
    (votes: 0)

    Solo - Alisa Weilerstein (2014)
    EAC Rip | Flac (Tracks + cue + log) | 303 MB | MP3 320Kbps CBR | 186 MB | 1 CD | Full Scans
    Genre: Classical | Label: Decca | Catalog Number: 002160802

    The long-awaited solo album from Decca’s star cellist sees Weilerstein revealing and revelling in her technique. The American cellist has attracted widespread attention worldwide for her combination of natural virtuosic command and technical precision with impassioned musicianship. The intensity of her playing has regularly been lauded, as has the spontaneity and sensitivity of her interpretations. Committed to expanding the cello repertoire, Alisa is a fervent champion of new music and this release is her first solo album.

    Calling for left hand pizzicato as well an alternative tuning of the cello’s lower strings, Kodaly’s Sonata was far ahead of the time in which it was written and explored every facet of the cello, revealing what could be done with this instrument.

    Many of Kodaly’s works are based upon Hungarian folksongs & dances, and this theme inspires the rest of the album, with works from the in-vogue Argentinian composer Osvaldo Golijov, across the world to the Chinese composer Bright Sheng.

    Sheng’s work is based on seven tunes from China (Seasons, Guessing Song, The Little Cabbage, The Drunken Fisherman, Diu Diu Dong, Pastoral Ballade, Tibetan Dance). Golijov’s Omaramor is a musically playful fantasia inspired by Carols Gardel (the Argentine tango specialist); and Gaspar Cassado’s Suite, consisting of three dance movements, quotes the Kodaly work.

    Composer: Zoltán Kodály, Osvaldo Golijov, Gaspar Cassadó, Bright Sheng
    Performer: Alisa Weilerstein


    Reviews: Alisa Weilerstein is one of those musicians born for their instrument. Debuting at the ripe old age of 13 with the Cleveland Orchestra, she has taken the world by storm with her cello performances of old and new works. Luckily for us, she’s coming to Melbourne to perform a single show of her solo repertoire. Including the works of Bach to Golijov (who she has worked extensively with), this show is not to be missed. However, if you can’t wait until then, get a copy of her new album, Solo, which features some of the works she will be performing.

    Weilerstein starts her album with a solo Cello Sonata by Kodály. Written during the height of World War I, it is considered a standard work for a cellist to learn, as it was the first major work for solo cello written since Bach’s epic Suites. Having never heard it myself until listening to this album, I found it more challenging than Bach’s works, and therefore much more interesting. Technically, Weilerstein took my breath away with her mastery of this work, and musically it had so many interesting corners; it took a number of listens until I felt I started to understand Kodály’s overall intention.

    Following this massive work is Omaramor, by Golijov. This is a stormy work, testing what the cello is able to achieve and what our ears can recognise. There are constant hints at tango rhythms, but just when it seems a groove has been set, Golijov turns the music away. This does not detract from the music; instead, it lends it more of an authoritative air. You feel Golijov and Weilerstein know the answer to everything together but as yet, are not ready to share it. If you can’t make the concert, at least make sure that you listen to this stunning album.


    Tracklisting:

    1. I. Allegro maestoso ma appassionato
    2. II. Adagio con gran espressione
    3. III. Allegro molto vivace
    4. Osvaldo Golijov: Omaramor
    5. I. Preludio-Fantasia a Zarabanda
    6. II. Sardana
    7. III. Intermezzo e Danza Finale a Jota
    8. Seasons
    9. Guessing Song
    10. Little Cabbage
    11. The Drunken Fisherman
    12. Diu Diu Dong
    13. Pastoral Ballade
    14. Tibetan Dance

    EAC LOG
    Exact Audio Copy V1.0 beta 3 from 29. August 2011

    EAC extraction logfile from 20. May 2015, 21:11

    Alisa Weilerstein / Solo

    Used drive : HL-DT-STDVDRAM GH70N Adapter: 0 ID: 0

    Read mode : Secure
    Utilize accurate stream : Yes
    Defeat audio cache : Yes
    Make use of C2 pointers : No

    Read offset correction : 667
    Overread into Lead-In and Lead-Out : No
    Fill up missing offset samples with silence : Yes
    Delete leading and trailing silent blocks : No
    Null samples used in CRC calculations : Yes
    Used interface : Native Win32 interface for Win NT & 2000
    Gap handling : Appended to previous track

    Used output format : User Defined Encoder
    Selected bitrate : 1024 kBit/s
    Quality : High
    Add ID3 tag : No
    Command line compressor : C:Program Files (x86)Exact Audio CopyFLACFLAC.EXE
    Additional command line options : -8 -V -T "ARTIST=%artist%" -T "TITLE=%title%" -T "ALBUM=%albumtitle%" -T "DATE=%year%" -T "TRACKNUMBER=%tracknr%" -T "GENRE=%genre%" -T "PERFORMER=%albuminterpret%" -T "COMPOSER=%composer%" %haslyrics%--tag-from-file=LYRICS="%lyricsfile%"%haslyrics% -T "ALBUMARTIST=%albumartist%" -T "DISCNUMBER=%cdnumber%" -T "TOTALDISCS=%totalcds%" -T "TOTALTRACKS=%numtracks%" -T "COMMENT=%comment%" %source% -o %dest% TOC of the extracted CD

    Track | Start | Length | Start sector | End sector
    ---------------------------------------------------------
    1 | 0:00.00 | 9:33.05 | 0 | 42979
    2 | 9:33.05 | 12:35.38 | 42980 | 99642
    3 | 22:08.43 | 11:54.37 | 99643 | 153229
    4 | 34:03.05 | 8:14.60 | 153230 | 190339
    5 | 42:17.65 | 5:45.74 | 190340 | 216288
    6 | 48:03.64 | 4:32.53 | 216289 | 236741
    7 | 52:36.42 | 5:50.62 | 236742 | 263053
    8 | 58:27.29 | 1:39.05 | 263054 | 270483
    9 | 60:06.34 | 0:58.01 | 270484 | 274834
    10 | 61:04.35 | 1:54.71 | 274835 | 283455
    11 | 62:59.31 | 4:52.25 | 283456 | 305380
    12 | 67:51.56 | 2:20.51 | 305381 | 315931
    13 | 70:12.32 | 4:36.16 | 315932 | 336647
    14 | 74:48.48 | 3:20.36 | 336648 | 351683 Track 1

    Filename C:rip1. Sonata for Solo Cello, Op.8- 1. Allegro maestoso ma appassionato.wav

    Pre-gap length 0:00:02.00

    Peak level 83.7 %
    Extraction speed 1.1 X
    Track quality 99.9 %
    Test CRC 58901FA7
    Copy CRC 58901FA7
    Accurately ripped (confidence 8) [B745955B] (AR v2)
    Copy OK

    Track 2

    Filename C:rip2. Sonata for Solo Cello, Op.8- 2. Adagio (Con gran espressione).wav

    Peak level 97.5 %
    Extraction speed 0.4 X
    Track quality 99.4 %
    Test CRC A3C382C6
    Copy CRC A3C382C6
    Accurately ripped (confidence 8) [F43C6CD1] (AR v2)
    Copy OK

    Track 3

    Filename C:rip3. Sonata for Solo Cello, Op.8- 3. Allegro molto vivace.wav

    Copy aborted

    Track 4

    Filename C:rip4. Sonata for Solo Cello, Op.8- 4. Omaramor For Solo Cello.wav

    Copy aborted

    Track 5

    Filename C:rip5. Suite For Solo Cello- 1. Preludio-Fantasia.wav

    Peak level 82.6 %
    Extraction speed 2.2 X
    Track quality 100.0 %
    Test CRC 162A657E
    Copy CRC 162A657E
    Accurately ripped (confidence 8) [3F705F0D] (AR v2)
    Copy OK

    Track 6

    Filename C:rip6. Suite For Solo Cello- 2. Sardana.wav

    Peak level 71.2 %
    Extraction speed 2.2 X
    Track quality 100.0 %
    Test CRC A2F9F92E
    Copy CRC A2F9F92E
    Accurately ripped (confidence 8) [B17BDF2F] (AR v2)
    Copy OK

    Track 7

    Filename C:rip7. Suite For Solo Cello- 3. Intermezzo e Danza Finale – a Jota.wav

    Copy aborted

    Track 8

    Filename C:rip8. Seven Tunes Heard In China- 1. Seasons.wav

    Peak level 73.3 %
    Extraction speed 0.0 X
    Track quality 98.3 %
    Test CRC 185C9D5A
    Copy CRC 185C9D5A
    Accurately ripped (confidence 8) [98F24430] (AR v2)
    Copy OK

    Track 9

    Filename C:rip9. Seven Tunes Heard In China- 2. Guessing Song.wav

    Copy aborted

    Track 10

    Filename C:rip10. Seven Tunes Heard In China- 3. The Little Cabbage.wav

    Peak level 13.9 %
    Extraction speed 0.1 X
    Track quality 98.4 %
    Test CRC B432A60F
    Copy CRC B432A60F
    Accurately ripped (confidence 8) [CF6D60CF] (AR v2)
    Copy OK

    Track 11

    Filename C:rip11. Seven Tunes Heard In China- 4. The Drunken Fisherman.wav

    Peak level 68.3 %
    Extraction speed 0.1 X
    Track quality 98.6 %
    Test CRC FAF85A32
    Copy CRC 0463CBA9
    Accurately ripped (confidence 8) [C6150956] (AR v2)
    Copy OK

    Track 12

    Filename C:rip12. Seven Tunes Heard In China- 5. Diu Diu Dong (Taiwan).wav

    Peak level 67.6 %
    Extraction speed 2.1 X
    Track quality 100.0 %
    Test CRC 5ACC14E3
    Copy CRC 5ACC14E3
    Accurately ripped (confidence 8) [215044FF] (AR v2)
    Copy OK

    Track 13

    Filename C:rip13. Seven Tunes Heard In China- 6. Pastoral Ballade.wav

    Peak level 75.6 %
    Extraction speed 2.2 X
    Track quality 99.9 %
    Test CRC E06DF5E0
    Copy CRC E06DF5E0
    Accurately ripped (confidence 8) [AB874FC5] (AR v2)
    Copy OK

    Track 14

    Filename C:rip14. Seven Tunes Heard In China- 7. Tibetan Dance.wav

    Peak level 62.5 %
    Extraction speed 2.4 X
    Track quality 100.0 %
    Test CRC 96C0B48F
    Copy CRC 96C0B48F
    Accurately ripped (confidence 8) [345110ED] (AR v2)
    Copy OK 10 track(s) accurately ripped
    4 track(s) canceled

    Some tracks could not be verified as accurate

    There were errors

    End of status report

    ==== Log checksum CADFA4588F992C064EB60AB9C7778184445F73741103CDD72699F43A75B7951C ====

    ------------------------------------------------------------

    Exact Audio Copy V1.0 beta 3 from 29. August 2011

    EAC extraction logfile from 20. May 2015, 22:59

    Alisa Weilerstein / Solo

    Used drive : HL-DT-STDVDRAM GH70N Adapter: 0 ID: 0

    Read mode : Secure
    Utilize accurate stream : Yes
    Defeat audio cache : Yes
    Make use of C2 pointers : No

    Read offset correction : 667
    Overread into Lead-In and Lead-Out : No
    Fill up missing offset samples with silence : Yes
    Delete leading and trailing silent blocks : No
    Null samples used in CRC calculations : Yes
    Used interface : Native Win32 interface for Win NT & 2000
    Gap handling : Appended to previous track

    Used output format : User Defined Encoder
    Selected bitrate : 1024 kBit/s
    Quality : High
    Add ID3 tag : No
    Command line compressor : C:Program Files (x86)Exact Audio CopyFLACFLAC.EXE
    Additional command line options : -8 -V -T "ARTIST=%artist%" -T "TITLE=%title%" -T "ALBUM=%albumtitle%" -T "DATE=%year%" -T "TRACKNUMBER=%tracknr%" -T "GENRE=%genre%" -T "PERFORMER=%albuminterpret%" -T "COMPOSER=%composer%" %haslyrics%--tag-from-file=LYRICS="%lyricsfile%"%haslyrics% -T "ALBUMARTIST=%albumartist%" -T "DISCNUMBER=%cdnumber%" -T "TOTALDISCS=%totalcds%" -T "TOTALTRACKS=%numtracks%" -T "COMMENT=%comment%" %source% -o %dest% TOC of the extracted CD

    Track | Start | Length | Start sector | End sector
    ---------------------------------------------------------
    1 | 0:00.00 | 9:33.05 | 0 | 42979
    2 | 9:33.05 | 12:35.38 | 42980 | 99642
    3 | 22:08.43 | 11:54.37 | 99643 | 153229
    4 | 34:03.05 | 8:14.60 | 153230 | 190339
    5 | 42:17.65 | 5:45.74 | 190340 | 216288
    6 | 48:03.64 | 4:32.53 | 216289 | 236741
    7 | 52:36.42 | 5:50.62 | 236742 | 263053
    8 | 58:27.29 | 1:39.05 | 263054 | 270483
    9 | 60:06.34 | 0:58.01 | 270484 | 274834
    10 | 61:04.35 | 1:54.71 | 274835 | 283455
    11 | 62:59.31 | 4:52.25 | 283456 | 305380
    12 | 67:51.56 | 2:20.51 | 305381 | 315931
    13 | 70:12.32 | 4:36.16 | 315932 | 336647
    14 | 74:48.48 | 3:20.36 | 336648 | 351683 Track 3

    Filename C:rip3. Sonata for Solo Cello, Op.8- 3. Allegro molto vivace.wav

    Peak level 65.6 %
    Extraction speed 0.9 X
    Track quality 99.7 %
    Test CRC 98683A0B
    Copy CRC 98683A0B
    Accurately ripped (confidence 8) [26852A73] (AR v2)
    Copy OK

    Track 4

    Filename C:rip4. Sonata for Solo Cello, Op.8- 4. Omaramor For Solo Cello.wav

    Peak level 90.4 %
    Extraction speed 1.5 X
    Track quality 99.9 %
    Test CRC 787FBFAC
    Copy CRC 787FBFAC
    Accurately ripped (confidence 8) [7F124B39] (AR v2)
    Copy OK

    Track 7

    Filename C:rip7. Suite For Solo Cello- 3. Intermezzo e Danza Finale – a Jota.wav

    Peak level 85.1 %
    Extraction speed 1.8 X
    Track quality 99.9 %
    Test CRC 58F5381B
    Copy CRC 58F5381B
    Accurately ripped (confidence 8) [C372F25D] (AR v2)
    Copy OK

    Track 9

    Filename C:rip9. Seven Tunes Heard In China- 2. Guessing Song.wav

    Peak level 71.6 %
    Extraction speed 0.8 X
    Track quality 99.6 %
    Test CRC B6F1694E
    Copy CRC B6F1694E
    Accurately ripped (confidence 8) [60BE272A] (AR v2)
    Copy OK All tracks accurately ripped

    No errors occurred

    End of status report

    ==== Log checksum CDE1AA3ED39E310DE3DBA5347BC9D27856482F9A074CA4DB40D76F0CB78A8862 ====

    ------------------------------------------------------------

    Exact Audio Copy V1.0 beta 3 from 29. August 2011

    EAC extraction logfile from 21. May 2015, 9:41

    Alisa Weilerstein / Solo

    Used drive : HL-DT-STDVDRAM GH70N Adapter: 0 ID: 0

    Read mode : Secure
    Utilize accurate stream : Yes
    Defeat audio cache : Yes
    Make use of C2 pointers : No

    Read offset correction : 667
    Overread into Lead-In and Lead-Out : No
    Fill up missing offset samples with silence : Yes
    Delete leading and trailing silent blocks : No
    Null samples used in CRC calculations : Yes
    Used interface : Native Win32 interface for Win NT & 2000
    Gap handling : Appended to previous track

    Used output format : User Defined Encoder
    Selected bitrate : 1024 kBit/s
    Quality : High
    Add ID3 tag : No
    Command line compressor : C:Program Files (x86)Exact Audio CopyFLACFLAC.EXE
    Additional command line options : -8 -V -T "ARTIST=%artist%" -T "TITLE=%title%" -T "ALBUM=%albumtitle%" -T "DATE=%year%" -T "TRACKNUMBER=%tracknr%" -T "GENRE=%genre%" -T "PERFORMER=%albuminterpret%" -T "COMPOSER=%composer%" %haslyrics%--tag-from-file=LYRICS="%lyricsfile%"%haslyrics% -T "ALBUMARTIST=%albumartist%" -T "DISCNUMBER=%cdnumber%" -T "TOTALDISCS=%totalcds%" -T "TOTALTRACKS=%numtracks%" -T "COMMENT=%comment%" %source% -o %dest% TOC of the extracted CD

    Track | Start | Length | Start sector | End sector
    ---------------------------------------------------------
    1 | 0:00.00 | 9:33.05 | 0 | 42979
    2 | 9:33.05 | 12:35.38 | 42980 | 99642
    3 | 22:08.43 | 11:54.37 | 99643 | 153229
    4 | 34:03.05 | 8:14.60 | 153230 | 190339
    5 | 42:17.65 | 5:45.74 | 190340 | 216288
    6 | 48:03.64 | 4:32.53 | 216289 | 236741
    7 | 52:36.42 | 5:50.62 | 236742 | 263053
    8 | 58:27.29 | 1:39.05 | 263054 | 270483
    9 | 60:06.34 | 0:58.01 | 270484 | 274834
    10 | 61:04.35 | 1:54.71 | 274835 | 283455
    11 | 62:59.31 | 4:52.25 | 283456 | 305380
    12 | 67:51.56 | 2:20.51 | 305381 | 315931
    13 | 70:12.32 | 4:36.16 | 315932 | 336647
    14 | 74:48.48 | 3:20.36 | 336648 | 351683 Track 11

    Filename C:rip11. Seven Tunes Heard In China- 4. The Drunken Fisherman.wav

    Peak level 68.3 %
    Extraction speed 2.4 X
    Track quality 100.0 %
    Test CRC 0463CBA9
    Copy CRC 0463CBA9
    Accurately ripped (confidence 8) [C6150956] (AR v2)
    Copy OK All tracks accurately ripped

    No errors occurred

    End of status report

    ==== Log checksum 1EA0EF72342A2E4065DAA6779540AC614FB8E27B76418735BC172803B3EAF658 ====
    Thanks to the original releaser

    Download:

    Nitroflare: FLAC | MP3

    Uploadable: FLAC | MP3



    Free Full Download Solo - Alisa Weilerstein (2014) form MediaFire.com link RapidShare, Uploaded.to, Zippyshare, FileSonic, turbobit.net, ul.to, ORON, DepositFiles, rapidgator.net, letitbit.net, extabit.com, filefactory.com. Solo - Alisa Weilerstein (2014) Torrent Download with keygen, crack, serial, 1080p, hdrip, 720p, 2015, 2016

    Malcolm Holcombe - The RCA Sessions (2015) CD + DVD Deluxe Edition


    Malcolm Holcombe - The RCA Sessions (2015) CD + DVD Deluxe Edition
    EAC | FLAC | Image (Cue&Log) ~ 462 Mb (incl 5%) | Mp3 (CBR320) ~ 168 Mb (incl 5%) | Time: 01:07:38
    DVD5 | VIDEO_TS | NTSC 16:9 (720x480), VBR, 29.970 fps | AC3 2.0 @ 192 kbps | 01:24:49 | ~ 3.6 Gb
    Genre: Singer/Songwriter, Folk, Alt-Country, Country-Rock, Americana | Label: Gypsy Eyes Music | Scans...

    Beth Hart & Joe Bonamassa - Dont Explain


    Beth Hart & Joe Bonamassa - Don't Explain
    FLAC | image + cue | EAC log | scans | 361 Mb (5% recov.)
    blues-rock | Filesonic, Hotfile, Wupload | 2011
    J*R Adventures (PRAR931391)
    “Joe Bonamassa is a very busy man. In March he released his latest solo album Dust Bowl and in June his band Black Country Communion released 2, arguably the best rock album of the...

    Acker Bilk - The Absolutley Essential Collection (2014)


    Acker Bilk - The Absolutley Essential Collection (2014)
    Smooth Jazz, Easy Listening | MP3 320 kbps CBR | 192 min | 440 MB
    Label: Big 3 | Rel: 2014
    60 track survey of one of the UKs most loved musicians, plying his trade throughout the 50s and early 60s. We open with his smash hit, on both sides of the Atlantic, Stranger On The Shore....

    Dean Martin - The Essential Dean Martin 2CD (2014)


    Dean Martin - The Essential Dean Martin 2CD (2014)
    MP3 320 kbps CBR | 106:18 min | 253 MB
    Genre: Jazz, Swing, Easy Listening | Label: Sony Music
    Though he was regarded as one of the best singers of his generation, Dean Martin initially rose to fame as part of a comedy act. In 1946, Martin teamed up with funnyman Jerry Lewis, and the two were soon a sensation, headlining at...

    VA - Nighttime Lovers 13-20: A Fine Collection of Disco Funk Classics of the 80s (2011-2014)


    VA - Nighttime Lovers 13-20: A Fine Collection of Disco Funk Classics of the 80's (2011-2014)
    Disco, Funk, Soul, RnB | MP3 320 kbps CBR | 9 hours | 1.29 MB
    Label: PTG Records | Rel: 2011-2014
    An indispensable thing for stylish and not so "Party" and even "Aftherparty" cognac, whiskey, sex ... that someone like, and "Nighttime Lovers"....

    David Sampson - Chesapeake (2014)


    David Sampson - Chesapeake (2014)
    Contemporary Classical | Summit Records SMT 639 | 2014 | 58:06 | EAC (FLAC, cue, log) | Full Scans | Various File Hosts | 309 MB
    American Brass Quintet, She-e Wu (marimba), James Baker (vibraphone), Steven Beck (piano), Martha Locker (piano), electronics
    “Sampson (b. 1951) belongs to a small group of contemporary composers who have...

    C.p.e. Bach: Wurttemberg Sonatas - Mahan Esfahani (2014)


    C.p.e. Bach: Wurttemberg Sonatas - Mahan Esfahani (2014)
    Classical | MP3 320kbps CBR | 1 CD | 183 MB
    Label: Hyperion | Catalog Number: 67995 | Rls.date: 6th Jan 2014
    Hyperion is delighted to present the debut recording of the wonderful young harpsichordist Mahan Esfahani. He was the first harpsichordist to be named a BBC New Generation Artist or to be awarded a fellowship...

    V.A - 12 Inch Dance: 80s Groove (2014)


    V.A - 12 Inch Dance: 80s Groove (2014)
    Disco, Soul, Funk | MP3 320 kbps | 210:10 min | ~497 MB
    Label: Rhino Records | Tracks: 30 | Rls.date: 2014
    2014 three CD collection of '80s R&B/Soul/Funk remixes. Includes tracks from Sister Sledge, Patrice Rushen, Narada Michael Walden, Rufus & Chaka Khan. Cherrelle, Nu Shooz and many others....

    Missa Johnouchi - Kataribe


    Missa Johnouchi - Kataribe (2003)
    2003 | Pacific Moon | New Age,Piano | EAC rip | Flac+Cue+Log | Full Covers(400dpi) | 263mb
    "Kataribe" means 'storyteller,' and that is Missa Johnouchi’s specialty. These delicate solo piano pieces weave a poignant musical tale inspired by nature, changing seasons, and dreams...

    ...

    The Love Unlimited Orchestra (Barry White) - Rhapsody In White (1974)


    The Love Unlimited Orchestra (Barry White) - Rhapsody In White (1974)
    EAC | FLAC | Image (Cue&Log) ~ 265 Mb (incl 5%) | Mp3 (CBR320) ~ 110 Mb (incl 5%) | Scans included
    Genre: Funk, Disco, Soul, Jazz-Funk | Label: Mercury | # 314 558 201-2 | Time: 00:38:54
    “The press may have dubbed Barry White "the walrus of love," but he was certainly the guru of...

    Add comment
    Try to express their thoughts correctly and succinctly


Bryan Adams - Discography (1979-2015)
Bryan Adams - Discography 1979-2015 (28 Albums, 52CD+23 Singles) Genre: Rock ||
VA - Masterpieces of Chillout (2015)
Masterpieces of Chillout (2015) Label: Jizoom | Genre: Downtempo, Chillout,
Barrett Baber - The Complete Season 9 Collection (The Voice
Release Name: Barrett Baber - The Complete Season 9 Collection (The Voice
John Williams - Star Wars: The Force Awakens - Original Motion
John Williams - Star Wars: The Force Awakens - Original Motion Picture
1.e4 vs The Sicilian II
Parimarjan Negi, "1.e4 vs The Sicilian II" 2016 | ISBN-10: 1907982574 | 400
Introductory Digital Image Processing: A Remote Sensing
Introductory Digital Image Processing: A Remote Sensing Perspective, 4th
Shackelford's Surgery of the Alimentary Tract, 2 Volume Set, 8e
Shackelford's Surgery of the Alimentary Tract, 2 Volume Set, 8e 2018 | ISBN:
Adobe Premiere Pro CS6 Classroom in a Book
Adobe Premiere Pro CS6 Classroom in a Book Published: 2012-07-19 | ISBN:
NVIDIA GeForce Experience 2.11.2.49 Beta / 2.11.2.46 Final 180422
NVIDIA GeForce Experience 2.11.2.49 Beta / 2.11.2.46 Final 180422 NVIDIA
Wonderware InduSoft Web Studio 8.0 180422
Wonderware InduSoft Web Studio 8.0 180422 Wonderware InduSoft Web Studio 8.0
Zoom Player PRO 10.0.0.100 Final 180422
Zoom Player PRO 10.0.0.100 Final 180422 Zoom Player PRO 10.0.0.100 Final |
MacCleanse 5.0.0 | MacOSX 180422
MacCleanse 5.0.0 | MacOSX 180422 MacCleanse 5.0.0 | MacOSX | 24 MB
Abstract oil painting 1 - 5 UHQ JPEG
Abstract oil painting 1 - 5 UHQ JPEG 5 UHQ JPEG | 5760X3840 | 300 DPI | 28 MB
Juice and Fresh UHQ JPG
Juice and Fresh UHQ JPG 10 UHQ JPG | up to 8000x5323 Pixels | 102 Mb
Girl in abstraction - 6 UHQ JPEG
Girl in abstraction - 6 UHQ JPEG 6 UHQ JPEG | 5915X4212 | 300 DPI | 60 MB
Flyer Psd Template - Farmer Flyer Business
Flyer Psd Template - Farmer Flyer Business PSD | 1275x1875 PIX | fontinfo |

Download Torrents. Fast and Free Torrent Downloads.

Not Store Any File In Server. The Links Are Provided Solely By This Site's Users.

If You Have Any Doubts About Legality Of Content, Feel Free To Contact US.
© 2015 - 2016