Torrent HaHa

Free download any torrents what you need
    New Download Links
    Speed
     kbps
     kbps
     kbps

    Servi - Meditatio in Variatione (1995) Reissue 2002

    Category: Music data: 20-12-2015, 20:25
    Rating:
    (votes: 4)

    Servi - Meditatio in Variatione (1995) [Reissue 2002]
    EAC Rip | FLAC (tracks+.cue+log) - 268 MB | MP3 CBR 320 kbps (LAME 3.93) - 122 MB | Covers - 129 MB
    Genre: Electronic, Ambient, New Age | RAR 3% Rec. | Label: ServiSound (CD 1.14-95-3)

    Meditatio in Variatione is the multimedia programme from Servi’s musicians and composers Jan Bilk and Tomaš Nawka. The Sorb musicians, natives of Lusatia, met at secondary school; since then, the two composers-cum-producers have been a particulary active duo in the world of Christian music. Performing as "Servi pacis" and later as "Servi", they made their mark on the modern church music scene - not to mention that of electronic music - in the GDR. Jan Bilk and Tomaš Nawka’s appearances at 370 churches have ranged from young people’s services and parish worship to straightforward concerts. They have performed in concert halls, theatres and sports venues across the country. Complementary to these activities, they have composed and produced on a commercial basis for radio, cinema and television. They have taught at the Hanns Eisler Academy of Music in East Berlin and other institutions. All in all, an impressive artistic achievement. Jan Bilk and Tomaš Nawka can now boast an international reputation as versatile, established artistes in their chosen field. Just look at successful projects like the eight-channel sound installation at the Berlin Zeiss-Groß-Planetarium’s first laser show, the Open Air Classics Concert with the Grand Radio Broadcasting Orchestra of Berlin, or other appearances using the Delta Stereophonic System. They have provided the music for about 70 films and radio plays and in 1988, were awarded the Special Prize for Radio in recognition of this outstanding work.

    Tracklist:
    01. Meeresblicke
    02. Nytame
    03. Sprachlos
    04. Wjecor
    05. Farbspiele
    06. Absorbés dans pensées...Andante
    07. Absorbés dans pensées...Grave
    08. Absorbés dans pensées...Allegretto
    09. Verwandeln
    10. Solivox
    11. Atemlos
    12. Am Abend (Instrumental Version, Bonus track)
    13. Atemlos (Short Version, Bonus track)

    Total time: 51:52

    EAC log
    Exact Audio Copy V1.0 beta 4 from 7. December 2014

    EAC extraction logfile from 10. February 2015, 10:09

    Servi / Meditatio in Variatione

    Used drive : PLEXTOR DVDR PX-608CU Adapter: 1 ID: 0

    Read mode : Secure
    Utilize accurate stream : Yes
    Defeat audio cache : Yes
    Make use of C2 pointers : No

    Read offset correction : 48
    Overread into Lead-In and Lead-Out : No
    Fill up missing offset samples with silence : Yes
    Delete leading and trailing silent blocks : No
    Null samples used in CRC calculations : Yes
    Used interface : Native Win32 interface for Win NT & 2000
    Gap handling : Appended to previous track

    Used output format : User Defined Encoder
    Selected bitrate : 1024 kBit/s
    Quality : High
    Add ID3 tag : No
    Command line compressor : ....codecsflac.exe
    Additional command line options : -T "comment=Ripped by Synthrex for New-Team.org" -8 -V %source% TOC of the extracted CD

    Track | Start | Length | Start sector | End sector
    ---------------------------------------------------------
    1 | 0:00.00 | 5:40.02 | 0 | 25501
    2 | 5:40.02 | 3:48.40 | 25502 | 42641
    3 | 9:28.42 | 7:30.60 | 42642 | 76451
    4 | 16:59.27 | 3:23.73 | 76452 | 91749
    5 | 20:23.25 | 3:40.02 | 91750 | 108251
    6 | 24:03.27 | 3:02.20 | 108252 | 121921
    7 | 27:05.47 | 2:58.35 | 121922 | 135306
    8 | 30:04.07 | 2:34.40 | 135307 | 146896
    9 | 32:38.47 | 3:35.68 | 146897 | 163089
    10 | 36:14.40 | 3:52.50 | 163090 | 180539
    11 | 40:07.15 | 5:23.37 | 180540 | 204801
    12 | 45:30.52 | 3:02.10 | 204802 | 218461
    13 | 48:32.62 | 3:19.48 | 218462 | 233434 Track 1

    Filename C:new-team.orgServi - (1995) - Meditatio in Variatione1.Meeresblicke.wav

    Pre-gap length 0:00:02.00

    Peak level 98.0 %
    Extraction speed 1.1 X
    Track quality 100.0 %
    Test CRC 0F98A46C
    Copy CRC 0F98A46C
    Accurately ripped (confidence 1) [2D6F11EE] (AR v2)
    Copy OK

    Track 2

    Filename C:new-team.orgServi - (1995) - Meditatio in Variatione2.Nytame.wav

    Pre-gap length 0:00:02.40

    Peak level 97.9 %
    Extraction speed 1.1 X
    Track quality 100.0 %
    Test CRC A25CE0D3
    Copy CRC A25CE0D3
    Accurately ripped (confidence 1) [85546BDD] (AR v2)
    Copy OK

    Track 3

    Filename C:new-team.orgServi - (1995) - Meditatio in Variatione3.Sprachlos.wav

    Peak level 98.0 %
    Extraction speed 1.4 X
    Track quality 100.0 %
    Test CRC 3EFF4608
    Copy CRC 3EFF4608
    Accurately ripped (confidence 1) [0CA40634] (AR v2)
    Copy OK

    Track 4

    Filename C:new-team.orgServi - (1995) - Meditatio in Variatione4.Wjecor.wav

    Pre-gap length 0:00:03.45

    Peak level 92.1 %
    Extraction speed 1.4 X
    Track quality 100.0 %
    Test CRC EBDA18B3
    Copy CRC EBDA18B3
    Accurately ripped (confidence 1) [50475E4A] (AR v2)
    Copy OK

    Track 5

    Filename C:new-team.orgServi - (1995) - Meditatio in Variatione5.Farbspiele.wav

    Pre-gap length 0:00:02.15

    Peak level 98.0 %
    Extraction speed 1.4 X
    Track quality 100.0 %
    Test CRC 583765BB
    Copy CRC 583765BB
    Accurately ripped (confidence 1) [2931516D] (AR v2)
    Copy OK

    Track 6

    Filename C:new-team.orgServi - (1995) - Meditatio in Variatione6.Absorbés dans pensées...Andante.wav

    Pre-gap length 0:00:02.10

    Peak level 86.0 %
    Extraction speed 1.3 X
    Track quality 99.9 %
    Test CRC 986F6DF5
    Copy CRC 986F6DF5
    Accurately ripped (confidence 1) [A17AC77F] (AR v2)
    Copy OK

    Track 7

    Filename C:new-team.orgServi - (1995) - Meditatio in Variatione7.Absorbés dans pensées...Grave.wav

    Peak level 31.3 %
    Extraction speed 1.5 X
    Track quality 100.0 %
    Test CRC C9BE5705
    Copy CRC C9BE5705
    Accurately ripped (confidence 1) [94AD4C52] (AR v2)
    Copy OK

    Track 8

    Filename C:new-team.orgServi - (1995) - Meditatio in Variatione8.Absorbés dans pensées...Allegretto.wav

    Peak level 98.0 %
    Extraction speed 1.5 X
    Track quality 100.0 %
    Test CRC 0E5424E8
    Copy CRC 0E5424E8
    Accurately ripped (confidence 1) [5DA74558] (AR v2)
    Copy OK

    Track 9

    Filename C:new-team.orgServi - (1995) - Meditatio in Variatione9.Verwandeln.wav

    Peak level 97.7 %
    Extraction speed 1.6 X
    Track quality 100.0 %
    Test CRC 615DFB76
    Copy CRC 615DFB76
    Accurately ripped (confidence 1) [28B3D28E] (AR v2)
    Copy OK

    Track 10

    Filename C:new-team.orgServi - (1995) - Meditatio in Variatione10.Solivox.wav

    Pre-gap length 0:00:01.18

    Peak level 98.0 %
    Extraction speed 1.7 X
    Track quality 100.0 %
    Test CRC ADD5D2C2
    Copy CRC ADD5D2C2
    Accurately ripped (confidence 1) [6FD39380] (AR v2)
    Copy OK

    Track 11

    Filename C:new-team.orgServi - (1995) - Meditatio in Variatione11.Atemlos.wav

    Pre-gap length 0:00:02.20

    Peak level 98.0 %
    Extraction speed 1.9 X
    Track quality 100.0 %
    Test CRC ABF24CA2
    Copy CRC ABF24CA2
    Accurately ripped (confidence 1) [2F6F71D2] (AR v2)
    Copy OK

    Track 12

    Filename C:new-team.orgServi - (1995) - Meditatio in Variatione12.Am Abend (Instrumental Version).wav

    Pre-gap length 0:00:05.02

    Peak level 92.2 %
    Extraction speed 1.8 X
    Track quality 100.0 %
    Test CRC 3F26B907
    Copy CRC 3F26B907
    Accurately ripped (confidence 1) [8DA2BE00] (AR v2)
    Copy OK

    Track 13

    Filename C:new-team.orgServi - (1995) - Meditatio in Variatione13.Atemlos (Short Version).wav

    Pre-gap length 0:00:01.27

    Peak level 98.0 %
    Extraction speed 1.8 X
    Track quality 100.0 %
    Test CRC E977C4BA
    Copy CRC E977C4BA
    Accurately ripped (confidence 1) [19C180B1] (AR v2)
    Copy OK All tracks accurately ripped

    No errors occurred

    End of status report

    ---- CUETools DB Plugin V2.1.6

    [CTDB TOCID: 7F081y_q2YuY_C36v8ekLvyaRec-] found
    Submit result: 7F081y_q2YuY_C36v8ekLvyaRec- has been confirmed
    Track | CTDB Status
    1 | (1/1) Accurately ripped
    2 | (1/1) Accurately ripped
    3 | (1/1) Accurately ripped
    4 | (1/1) Accurately ripped
    5 | (1/1) Accurately ripped
    6 | (1/1) Accurately ripped
    7 | (1/1) Accurately ripped
    8 | (1/1) Accurately ripped
    9 | (1/1) Accurately ripped
    10 | (1/1) Accurately ripped
    11 | (1/1) Accurately ripped
    12 | (1/1) Accurately ripped
    13 | (1/1) Accurately ripped ==== Log checksum 8EA4FE325AB2A5D19653C0C7AE5D686369671BE49F070228253BEE3EF35D5C5D ====

    CUETools log
    [CUETools log; Date: 02.06.2015 20:03:01; Version: 2.1.4]
    [CTDB TOCID: 7F081y_q2YuY_C36v8ekLvyaRec-] found.
    Track | CTDB Status
    1 | (2/2) Accurately ripped
    2 | (2/2) Accurately ripped
    3 | (2/2) Accurately ripped
    4 | (2/2) Accurately ripped
    5 | (2/2) Accurately ripped
    6 | (2/2) Accurately ripped
    7 | (2/2) Accurately ripped
    8 | (2/2) Accurately ripped
    9 | (2/2) Accurately ripped
    10 | (2/2) Accurately ripped
    11 | (2/2) Accurately ripped
    12 | (2/2) Accurately ripped
    13 | (2/2) Accurately ripped
    [AccurateRip ID: 001ab03d-0103e948-9f0c280d] found.
    Track [ CRC | V2 ] Status
    01 [5a41dd92|2d6f11ee] (0+1/1) Accurately ripped
    02 [92ff1a6a|85546bdd] (0+1/1) Accurately ripped
    03 [54a0bade|0ca40634] (0+1/1) Accurately ripped
    04 [eef2438b|50475e4a] (0+1/1) Accurately ripped
    05 [67ccd648|2931516d] (0+1/1) Accurately ripped
    06 [b7a0388d|a17ac77f] (0+1/1) Accurately ripped
    07 [f884f52d|94ad4c52] (0+1/1) Accurately ripped
    08 [62b73a3c|5da74558] (0+1/1) Accurately ripped
    09 [cf480c69|28b3d28e] (0+1/1) Accurately ripped
    10 [04a1e6a8|6fd39380] (0+1/1) Accurately ripped
    11 [0b05dc56|2f6f71d2] (0+1/1) Accurately ripped
    12 [39c8ab1f|8da2be00] (0+1/1) Accurately ripped
    13 [87154425|19c180b1] (0+1/1) Accurately ripped

    Track Peak [ CRC32 ] [W/O NULL] [ LOG ]
    -- 98,0 [E8F81ADD] [ED6FF01E]
    01 98,0 [0F98A46C] [76F8C012] CRC32
    02 97,9 [A25CE0D3] [0C000592] CRC32
    03 98,0 [3EFF4608] [F7E2F1EB] CRC32
    04 92,1 [EBDA18B3] [1F8B334B] CRC32
    05 98,0 [583765BB] [D61524FD] CRC32
    06 86,0 [986F6DF5] [D65CE913] CRC32
    07 31,3 [C9BE5705] [9CADB678] CRC32
    08 98,0 [0E5424E8] [53975AE6] CRC32
    09 97,7 [615DFB76] [78DE7BAA] CRC32
    10 98,0 [ADD5D2C2] [3376307C] CRC32
    11 98,0 [ABF24CA2] [674D8811] CRC32
    12 92,2 [3F26B907] [9229CAD6] CRC32
    13 98,0 [E977C4BA] [E51B5914] CRC32

    Thanks to Synthrex

    Nitroflare.com

    LOSSLESS:
    Nitroflare.com
    _______________

    MP3 320 kbps:
    Nitroflare.com
    _______________

    Covers:
    Nitroflare.com

    Depositfiles.com

    LOSSLESS:
    Depositfiles.com
    _______________

    MP3 320 kbps:
    Depositfiles.com
    _______________

    Covers:
    Depositfiles.com


    Free Full Download Servi - Meditatio in Variatione form MediaFire.com link RapidShare, Uploaded.to, Zippyshare, FileSonic, turbobit.net, ul.to, ORON, DepositFiles, rapidgator.net, letitbit.net, extabit.com, filefactory.com. Servi - Meditatio in Variatione (1995) Reissue 2002 Torrent Download with keygen, crack, serial, 1080p, hdrip, 720p, 2015, 2016

    Earl Wild: Brahms · Sonata in F minor Op. 5 and Other Works Re-up


    Earl Wild: Brahms · Sonata No. 3 in F minor & Other Piano Works
    EAC rip | Flac, IMG+CUE, Log | 421 MB | Full 300 dpi scans | WinRar [5% rec. rec]
    Label: Ivory Classics # 72008 | Rel. 2002 | Rec.: May 5-6, 2002 (Tracks 1-5); 21-Sept-2000 (Tracks 6-11); 22-March-1982 (Track 12)
    “From the notes (Some thoughts on the Sonata): In my 86 years on this planet, I have heard...

    Philip Glass - Music from The Hours (2004) Performed by Michael Riesman


    Philip Glass - Music from 'The Hours' (2004) Performed by Michael Riesman
    EAC | FLAC | Image (Cue&Log) ~ 220 Mb (incl 5%) | Mp3 (CBR320) ~ 171 Mb (incl 5%) | Scans included
    Genre: Classical, Minimalism, Score | Label: Orange Mountain Music | # 0012 | Time: 00:57:25
    “In 2002 Philip Glass composed the soundtrack score to the Stephen Daldry film "The...

    Ferenc Aszodi - Trompeten Impressionen (1980 CD reissue 1985 Intercord # INT 830.044)


    Ferenc Aszodi - Trompeten Impressionen
    EAC+LOG+CUE | FLAC: 266 MB | Full Artwork: 28 MB | 5% Recovery Info
    Label/Cat#: Intercord # INT 830.044 | Country/Year: Germany 1985, 1980
    Genre: Pop | Style: Easy Listening, Instrumental
    “"...1956 kam Ferenc Aszodi nach Deutschland: Schon zwei Monate nach seiner Ankunft wurde er die erste Trompete des Max Greger...

    Barbecue Bob & The Spare Ribs - After School Special (2002)


    Barbecue Bob & The Spare Ribs - After School Special (2002)
    EAC Rip | FLAC (Image) + CUE + LOG | 379 MB | Covers Included
    Genre: Blues/Pop/Rock/Blues-Rock | Label: Dada Records | Catalog Number: DR-0028 | Release Date: Oct 1, 2002 | RAR 5% Rec. | RS.com + HF.com
    “This debut album by Barbecue Bob & The Spareribs was recorded live at Coyote Studios in Brooklyn,...

    Ray Conniff - Jean / Bridge Over Troubled Water (2 LP on 1 CD 2002) Re-Up


    Ray Conniff
    Jean / Bridge Over Troubled Water (2 LP on 1 CD , 2002)
    EAC Rip | FLAC+CUE+LOG | 1CD | Scans | 65Min. | 420mb
    Easy Listening Pop /LP Originally released in 1969
    Label: Sony Music Collectables / Catalogue: COL-CD-7457
    “Ray released these two albums in about 1969 and 1970 respectively. The quality and sound are first rate in these CD's. Good...

    Frankie Laine - I Believe (Boxed Set 6CD) (2001)


    Frankie Laine - I Believe (Boxed Set 6CD) (2001)
    MP3 CBR 256kbps | Label: Bear Family, Germany | Release: 2001 | 217:34 min | 626 MB
    Genre: Jazz, Easy Listening, Vocal, Contemporary Blues
    “The 2nd part of Bear Family's Complete Frankie Laine career retrospective follows the great singer and his producer, Mitch Miller, to Columbia Records, where they went together...

    Dolly Parton - Halos And Horns (2002)


    Dolly Parton - Halos And Horns (2002)
    1CD | EAC-Rip | APE-image +cue +log +COVERS | July 9, 2002 | 342,18 Mb
    Genre: Country | RAR 3% Rec. | Label: Sugarhill
    RS.com + HF.com, Turbobit, Sharingmatrix
    Like many musicians profoundly moved by the events of September 11, Dolly Parton reacted to the tragedy by going inward and forging a spiritual journey through songwriting. As...

    Delbert McClinton - Room To Breath (2002)


    Delbert McClinton - Room To Breath (2002)
    EAC Rip | FLAC, IMG+CUE, LOG | 287 MB | 42,20 min. | Covers
    Label: New West Records | Rock, Blues-Rock, Country | RAR 3% Rec.
    “Delbert McClinton (born 4 November 1940, in Lubbock, Texas) is a Grammy Award-winning singer-songwriter and musician. Active as a side-man since at least 1962 and as a band leader since 1972, he has...

    Add comment
    Try to express their thoughts correctly and succinctly


Bryan Adams - Discography (1979-2015)
Bryan Adams - Discography 1979-2015 (28 Albums, 52CD+23 Singles) Genre: Rock ||
VA - Masterpieces of Chillout (2015)
Masterpieces of Chillout (2015) Label: Jizoom | Genre: Downtempo, Chillout,
Barrett Baber - The Complete Season 9 Collection (The Voice
Release Name: Barrett Baber - The Complete Season 9 Collection (The Voice
John Williams - Star Wars: The Force Awakens - Original Motion
John Williams - Star Wars: The Force Awakens - Original Motion Picture
Mobile Forensics Cookbook
Igor Mikhaylov, "Mobile Forensics Cookbook" English | ISBN: 1785282050 | 2018 |
Responsive Web Design by Example
Frahaan Hussain, "Responsive Web Design by Example: Embrace responsive design
Textbook of Physical Chemistry
Textbook Of Physical Chemistry by H. K. Moudgil English | 1 July 2010 | ISBN:
The Complete Companion for AQA Psychology A Level: Year 2
The Complete Companion for AQA Psychology A Level: Year 2 Fourth Edition
Adobe Dreamweaver CC 2018 v18.0.0.10136 (x86/x64) Multilingual
Adobe Dreamweaver CC 2018 v18.0.0.10136 (x86/x64) Multilingual Portable 180113
Adobe Muse CC 2018 v2018.0.0.685 Multilingual macOS 180113
Adobe Muse CC 2018 v2018.0.0.685 Multilingual macOS 180113 Adobe Muse CC
Adobe Photoshop Lightroom Classic CC 2018 v7.0 MacOSX 180113
Adobe Photoshop Lightroom Classic CC 2018 v7.0 MacOSX 180113 Adobe Photoshop
Adobe Photoshop Lightroom Classic CC 2018 v7.0.0.10 (x64)
Adobe Photoshop Lightroom Classic CC 2018 v7.0.0.10 (x64) Multilingual Portable
Abstract oil painting 1 - 5 UHQ JPEG
Abstract oil painting 1 - 5 UHQ JPEG 5 UHQ JPEG | 5760X3840 | 300 DPI | 28 MB
Juice and Fresh UHQ JPG
Juice and Fresh UHQ JPG 10 UHQ JPG | up to 8000x5323 Pixels | 102 Mb
Girl in abstraction - 6 UHQ JPEG
Girl in abstraction - 6 UHQ JPEG 6 UHQ JPEG | 5915X4212 | 300 DPI | 60 MB
Flyer Psd Template - Farmer Flyer Business
Flyer Psd Template - Farmer Flyer Business PSD | 1275x1875 PIX | fontinfo |

Download Torrents. Fast and Free Torrent Downloads.

Not Store Any File In Server. The Links Are Provided Solely By This Site's Users.

If You Have Any Doubts About Legality Of Content, Feel Free To Contact US.
© 2015 - 2016