Torrent HaHa

Free download any torrents what you need
    New Download Links
    Speed
     kbps
     kbps
     kbps

    The Walkers - Greatest Hits (2010)

    Category: Music data: 20-12-2015, 20:25
    Rating:
    (votes: 0)

    The Walkers - Greatest Hits (2010)
    2CD | EAC Rip | FLAC (Img) + Cue + Log ~ 742 Mb | MP3 CBR320 ~ 307 Mb
    Scans Included (JPG, 300 dpi) | RAR 5% Recovery
    Folk, Country, Pop, Rock | Telstar/T2 Entertainment #PRCD2010018

    The Walkers was a Dutch music group from Maastricht. The group was formed in 1963 from the Mosam Skiffle Group. With pop music with skiffle accent and song of Jean Innemee the group had its own sound. Their song There's no more corn (on the brasos) reached high places on charts around the world. With the arrival of René Innemee in 1973, the style of the band changed toward country. However, the group was successful.


    ***************


    Track List CD1:

    01. There's No More Corn On The Brasos [04:05]
    02. Everybody Loves A Saturdaynight [02:32]
    03. Rock Island Line [02:23]
    04. Long Summer Day [02:24]
    05. Nobody Loves Like An Irishman [02:33]
    06. Sally Please [02:58]
    07. My Darling Helena [02:43]
    08. The Night [03:20]
    09. Sister Joanne [03:38]
    10. On The Sixth Of July [02:44]
    11. I Adore Her [03:31]
    12. Taboo [03:11]
    13. Dance Of Love [02:27]
    14. Gipsy Woman [02:32]
    15. Clown In Town [02:53]
    16. In The Evening [04:15]
    17. Oh Suzanna [02:17]
    18. Oh Lonesome Me [03:55]
    19. I've Got A Tiger By The Tail [02:42]
    20. Jack Of Diamond [02:51]

    EAC Log
    Exact Audio Copy V1.0 beta 4 from 7. December 2014

    Отчёт EAC об извлечении, выполненном 1. июля 2015, 10:28

    The Walkers / Greatest Hits CD 1

    Дисковод: ASUS DRW-24F1ST a Adapter: 1 ID: 0

    Режим чтения : Достоверность
    Использование точного потока : Да
    Отключение кэша аудио : Да
    Использование указателей C2 : Нет

    Коррекция смещения при чтении : 6
    Способность читать области Lead-in и Lead-out : Нет
    Заполнение пропущенных сэмплов тишиной : Да
    Удаление блоков с тишиной в начале и конце : Нет
    При вычислениях CRC использовались нулевые сэмплы : Да
    Интерфейс : Встроенный Win32-интерфейс для Win NT/2000

    Выходной формат : Пользовательский кодировщик
    Выбранный битрейт : 128 kBit/s
    Качество : Высокий
    Добавление ID3-тега : Нет
    Утилита сжатия : C:Program FilesExact Audio CopyFlacflac.exe
    Дополнительные параметры : -V -8 -T "Date=%year%" -T "Genre=%genre%" %source% TOC извлечённого CD

    Трек | Старт | Длительность | Начальный сектор | Конечный сектор
    ---------------------------------------------------------------------
    1 | 0:00.00 | 4:04.03 | 0 | 18302
    2 | 4:04.03 | 2:31.13 | 18303 | 29640
    3 | 6:35.16 | 2:22.63 | 29641 | 40353
    4 | 8:58.04 | 2:23.16 | 40354 | 51094
    5 | 11:21.20 | 2:32.65 | 51095 | 62559
    6 | 13:54.10 | 2:57.59 | 62560 | 75893
    7 | 16:51.69 | 2:42.74 | 75894 | 88117
    8 | 19:34.68 | 3:19.55 | 88118 | 103097
    9 | 22:54.48 | 3:37.15 | 103098 | 119387
    10 | 26:31.63 | 2:43.04 | 119388 | 131616
    11 | 29:14.67 | 3:30.34 | 131617 | 147400
    12 | 32:45.26 | 3:10.37 | 147401 | 161687
    13 | 35:55.63 | 2:26.58 | 161688 | 172695
    14 | 38:22.46 | 2:31.24 | 172696 | 184044
    15 | 40:53.70 | 2:52.40 | 184045 | 196984
    16 | 43:46.35 | 4:14.14 | 196985 | 216048
    17 | 48:00.49 | 2:16.41 | 216049 | 226289
    18 | 50:17.15 | 3:54.65 | 226290 | 243904
    19 | 54:12.05 | 2:41.33 | 243905 | 256012
    20 | 56:53.38 | 2:50.19 | 256013 | 268781 Характеристики диапазона извлечения и сообщения об ошибках

    Выбранный диапазон

    Имя файла C:UsersErikDesktopThe Walkers - Greatest Hits CD 1.wav

    Пиковый уровень 98.8 %
    Скорость извлечения 7.3 X
    Качество диапазона 100.0 %
    CRC теста 305E0822
    CRC копии 305E0822
    Копирование... OK

    Ошибок не произошло


    AccurateRip: сводка

    Трек 1 отсутствует в базе данных
    Трек 2 отсутствует в базе данных
    Трек 3 отсутствует в базе данных
    Трек 4 отсутствует в базе данных
    Трек 5 отсутствует в базе данных
    Трек 6 отсутствует в базе данных
    Трек 7 отсутствует в базе данных
    Трек 8 отсутствует в базе данных
    Трек 9 отсутствует в базе данных
    Трек 10 отсутствует в базе данных
    Трек 11 отсутствует в базе данных
    Трек 12 отсутствует в базе данных
    Трек 13 отсутствует в базе данных
    Трек 14 отсутствует в базе данных
    Трек 15 отсутствует в базе данных
    Трек 16 отсутствует в базе данных
    Трек 17 отсутствует в базе данных
    Трек 18 отсутствует в базе данных
    Трек 19 отсутствует в базе данных
    Трек 20 отсутствует в базе данных

    Ни одного трека нет в базе AccurateRip

    Конец отчёта

    ---- CUETools DB Plugin V2.1.4

    [CTDB TOCID: 0PtU1WbGSsxV1vDHqZk0a38V1xk-] found
    Submit result: 0PtU1WbGSsxV1vDHqZk0a38V1xk- has been confirmed
    Track | CTDB Status
    1 | (1/1) Accurately ripped
    2 | (1/1) Accurately ripped
    3 | (1/1) Accurately ripped
    4 | (1/1) Accurately ripped
    5 | (1/1) Accurately ripped
    6 | (1/1) Accurately ripped
    7 | (1/1) Accurately ripped
    8 | (1/1) Accurately ripped
    9 | (1/1) Accurately ripped
    10 | (1/1) Accurately ripped
    11 | (1/1) Accurately ripped
    12 | (1/1) Accurately ripped
    13 | (1/1) Accurately ripped
    14 | (1/1) Accurately ripped
    15 | (1/1) Accurately ripped
    16 | (1/1) Accurately ripped
    17 | (1/1) Accurately ripped
    18 | (1/1) Accurately ripped
    19 | (1/1) Accurately ripped
    20 | (1/1) Accurately ripped

    DR Log
    foobar2000 1.2.6 / Dynamic Range Meter 1.1.1
    log date: 2015-07-02 22:33:35

    --------------------------------------------------------------------------------
    Analyzed: The Walkers / Greatest Hits CD 1
    --------------------------------------------------------------------------------

    DR Peak RMS Duration Track
    --------------------------------------------------------------------------------
    DR9 -3.86 dB -14.84 dB 4:04 01-There's No More Corn On The Brasos
    DR9 -4.63 dB -14.88 dB 2:31 02-Everybody Loves A Saturdaynight
    DR11 -2.34 dB -14.86 dB 2:23 03-Rock Island Line
    DR11 -1.25 dB -14.85 dB 2:23 04-Long Summer Day
    DR11 -2.08 dB -14.83 dB 2:33 05-Nobody Loves Like An Irishman
    DR9 -4.09 dB -14.87 dB 2:58 06-Sally Please
    DR11 -1.67 dB -14.87 dB 2:43 07-My Darling Helena
    DR10 -2.36 dB -14.84 dB 3:20 08-The Night
    DR9 -3.15 dB -14.84 dB 3:37 09-Sister Joanne
    DR9 -3.97 dB -14.87 dB 2:43 10-On The Sixth Of July
    DR12 -0.57 dB -14.86 dB 3:30 11-I Adore Her
    DR10 -3.15 dB -14.85 dB 3:10 12-Taboo
    DR12 -0.10 dB -14.83 dB 2:27 13-Dance Of Love
    DR10 -3.00 dB -14.87 dB 2:31 14-Gipsy Woman
    DR11 -2.13 dB -14.85 dB 2:53 15-Clown In Town
    DR10 -2.89 dB -14.81 dB 4:14 16-In The Evening
    DR9 -5.25 dB -14.88 dB 2:17 17-Oh Suzanna
    DR10 -3.11 dB -14.84 dB 3:55 18-Oh Lonesome Me
    DR11 -2.31 dB -14.84 dB 2:41 19-I've Got A Tiger By The Tail
    DR9 -4.29 dB -14.80 dB 2:50 20-Jack Of Diamond
    --------------------------------------------------------------------------------

    Number of tracks: 20
    Official DR value: DR10

    Samplerate: 44100 Hz
    Channels: 2
    Bits per sample: 16
    Bitrate: 815 kbps
    Codec: FLAC
    ================================================================================

    CUETools Log
    [CUETools log; Date: 02.07.2015 22:32:59; Version: 2.1.5]
    [CTDB TOCID: 0PtU1WbGSsxV1vDHqZk0a38V1xk-] found.
    Track | CTDB Status
    1 | (2/2) Accurately ripped
    2 | (2/2) Accurately ripped
    3 | (2/2) Accurately ripped
    4 | (2/2) Accurately ripped
    5 | (2/2) Accurately ripped
    6 | (2/2) Accurately ripped
    7 | (2/2) Accurately ripped
    8 | (2/2) Accurately ripped
    9 | (2/2) Accurately ripped
    10 | (2/2) Accurately ripped
    11 | (2/2) Accurately ripped
    12 | (2/2) Accurately ripped
    13 | (2/2) Accurately ripped
    14 | (2/2) Accurately ripped
    15 | (2/2) Accurately ripped
    16 | (2/2) Accurately ripped
    17 | (2/2) Accurately ripped
    18 | (2/2) Accurately ripped
    19 | (2/2) Accurately ripped
    20 | (2/2) Accurately ripped
    [AccurateRip ID: 002aa1c2-0272ab55-240dff14] disk not present in database.

    Track Peak [ CRC32 ] [W/O NULL] [ LOG ]
    -- 98,8 [305E0822] [A73A8A5D] CRC32
    01 64,1 [B83C3894] [76CD22A2]
    02 58,6 [786D7171] [1CA312F1]
    03 76,3 [6080F4E5] [D05CAA35]
    04 86,6 [ADE78707] [E538FE71]
    05 78,6 [098CD5C4] [F90A2647]
    06 62,4 [A58724E5] [4E7CAE39]
    07 82,5 [4D4F676E] [128D37B8]
    08 76,2 [A836D809] [940043A0]
    09 69,5 [E40D149E] [39F611FC]
    10 63,3 [38FEBD75] [E64708C5]
    11 93,6 [F1ED77AE] [428D815A]
    12 69,6 [3F638029] [0D2C6CD3]
    13 98,8 [31E544BE] [248B0F87]
    14 70,7 [C12EED5D] [0DFB6D84]
    15 78,2 [2E2C04E5] [E5B795CF]
    16 71,7 [2222D382] [D6137C7B]
    17 54,6 [A8FCE9A3] [E90922B5]
    18 69,9 [10516B1D] [570E0EBF]
    19 76,6 [68CD06C0] [15C3CD75]
    20 61,0 [06A1D1DE] [96497EDB]

    Track List CD2:

    01. Waterloo [02:43]
    02. The story of a social enemy [05:08]
    03. Gin and rum [02:36]
    04. The house of the rising sun [03:53]
    05. Loving her was easier [04:23]
    06. I`ll be your baby tonight [04:00]
    07. Drums of Bora Bora [03:08]
    08. Dry Bones [02:13]
    09. Chewing gum [02:26]
    10. Alabama Bound [01:59]
    11. The cotton song [02:58]
    12. Green Corn [03:20]
    13. Freight train [03:46]
    14. The ballad of the fisherman [03:33]
    15. Worried man [02:42]
    16. Seven golden daffodils [03:05]
    17. O`riley [02:32]
    18. Who killed the fish [02:49]
    19. Fairyland Queen [02:11]
    20. Play gipsy play [02:47]

    EAC Log
    Exact Audio Copy V1.0 beta 4 from 7. December 2014

    Отчёт EAC об извлечении, выполненном 1. июля 2015, 12:10

    The Walkers / Greatest Hits CD 2

    Дисковод: ASUS DRW-24F1ST a Adapter: 1 ID: 0

    Режим чтения : Достоверность
    Использование точного потока : Да
    Отключение кэша аудио : Да
    Использование указателей C2 : Нет

    Коррекция смещения при чтении : 6
    Способность читать области Lead-in и Lead-out : Нет
    Заполнение пропущенных сэмплов тишиной : Да
    Удаление блоков с тишиной в начале и конце : Нет
    При вычислениях CRC использовались нулевые сэмплы : Да
    Интерфейс : Встроенный Win32-интерфейс для Win NT/2000

    Выходной формат : Пользовательский кодировщик
    Выбранный битрейт : 128 kBit/s
    Качество : Высокий
    Добавление ID3-тега : Нет
    Утилита сжатия : C:Program FilesExact Audio CopyFlacflac.exe
    Дополнительные параметры : -V -8 -T "Date=%year%" -T "Genre=%genre%" %source% TOC извлечённого CD

    Трек | Старт | Длительность | Начальный сектор | Конечный сектор
    ---------------------------------------------------------------------
    1 | 0:00.00 | 2:42.37 | 0 | 12186
    2 | 2:42.37 | 5:07.74 | 12187 | 35285
    3 | 7:50.36 | 2:35.18 | 35286 | 46928
    4 | 10:25.54 | 3:52.07 | 46929 | 64335
    5 | 14:17.61 | 4:22.47 | 64336 | 84032
    6 | 18:40.33 | 3:59.57 | 84033 | 102014
    7 | 22:40.15 | 3:07.56 | 102015 | 116095
    8 | 25:47.71 | 2:12.67 | 116096 | 126062
    9 | 28:00.63 | 2:25.01 | 126063 | 136938
    10 | 30:25.64 | 1:58.61 | 136939 | 145849
    11 | 32:24.50 | 2:57.40 | 145850 | 159164
    12 | 35:22.15 | 3:19.19 | 159165 | 174108
    13 | 38:41.34 | 3:45.38 | 174109 | 191021
    14 | 42:26.72 | 3:32.60 | 191022 | 206981
    15 | 45:59.57 | 2:41.26 | 206982 | 219082
    16 | 48:41.08 | 3:04.12 | 219083 | 232894
    17 | 51:45.20 | 2:31.20 | 232895 | 244239
    18 | 54:16.40 | 2:48.72 | 244240 | 256911
    19 | 57:05.37 | 2:10.23 | 256912 | 266684
    20 | 59:15.60 | 2:46.13 | 266685 | 279147 Характеристики диапазона извлечения и сообщения об ошибках

    Выбранный диапазон

    Имя файла C:UsersErikDesktopThe Walkers - Greatest Hits CD 2..wav

    Пиковый уровень 98.8 %
    Скорость извлечения 7.0 X
    Качество диапазона 100.0 %
    CRC теста F99EB005
    CRC копии F99EB005
    Копирование... OK

    Ошибок не произошло


    AccurateRip: сводка

    Трек 1 отсутствует в базе данных
    Трек 2 отсутствует в базе данных
    Трек 3 отсутствует в базе данных
    Трек 4 отсутствует в базе данных
    Трек 5 отсутствует в базе данных
    Трек 6 отсутствует в базе данных
    Трек 7 отсутствует в базе данных
    Трек 8 отсутствует в базе данных
    Трек 9 отсутствует в базе данных
    Трек 10 отсутствует в базе данных
    Трек 11 отсутствует в базе данных
    Трек 12 отсутствует в базе данных
    Трек 13 отсутствует в базе данных
    Трек 14 отсутствует в базе данных
    Трек 15 отсутствует в базе данных
    Трек 16 отсутствует в базе данных
    Трек 17 отсутствует в базе данных
    Трек 18 отсутствует в базе данных
    Трек 19 отсутствует в базе данных
    Трек 20 отсутствует в базе данных

    Ни одного трека нет в базе AccurateRip

    Конец отчёта

    ---- CUETools DB Plugin V2.1.4

    [CTDB TOCID: vIe4oDJWncRbgPQ5casviZ5tATY-] disk not present in database
    Submit result: vIe4oDJWncRbgPQ5casviZ5tATY- has been uploaded

    DR Log
    foobar2000 1.2.6 / Dynamic Range Meter 1.1.1
    log date: 2015-07-02 22:33:35

    --------------------------------------------------------------------------------
    Analyzed: The Walkers / Greatest Hits CD 1
    --------------------------------------------------------------------------------

    DR Peak RMS Duration Track
    --------------------------------------------------------------------------------
    DR9 -3.86 dB -14.84 dB 4:04 01-There's No More Corn On The Brasos
    DR9 -4.63 dB -14.88 dB 2:31 02-Everybody Loves A Saturdaynight
    DR11 -2.34 dB -14.86 dB 2:23 03-Rock Island Line
    DR11 -1.25 dB -14.85 dB 2:23 04-Long Summer Day
    DR11 -2.08 dB -14.83 dB 2:33 05-Nobody Loves Like An Irishman
    DR9 -4.09 dB -14.87 dB 2:58 06-Sally Please
    DR11 -1.67 dB -14.87 dB 2:43 07-My Darling Helena
    DR10 -2.36 dB -14.84 dB 3:20 08-The Night
    DR9 -3.15 dB -14.84 dB 3:37 09-Sister Joanne
    DR9 -3.97 dB -14.87 dB 2:43 10-On The Sixth Of July
    DR12 -0.57 dB -14.86 dB 3:30 11-I Adore Her
    DR10 -3.15 dB -14.85 dB 3:10 12-Taboo
    DR12 -0.10 dB -14.83 dB 2:27 13-Dance Of Love
    DR10 -3.00 dB -14.87 dB 2:31 14-Gipsy Woman
    DR11 -2.13 dB -14.85 dB 2:53 15-Clown In Town
    DR10 -2.89 dB -14.81 dB 4:14 16-In The Evening
    DR9 -5.25 dB -14.88 dB 2:17 17-Oh Suzanna
    DR10 -3.11 dB -14.84 dB 3:55 18-Oh Lonesome Me
    DR11 -2.31 dB -14.84 dB 2:41 19-I've Got A Tiger By The Tail
    DR9 -4.29 dB -14.80 dB 2:50 20-Jack Of Diamond
    --------------------------------------------------------------------------------

    Number of tracks: 20
    Official DR value: DR10

    Samplerate: 44100 Hz
    Channels: 2
    Bits per sample: 16
    Bitrate: 815 kbps
    Codec: FLAC
    ================================================================================

    CUETools Log
    [CUETools log; Date: 02.07.2015 22:32:59; Version: 2.1.5]
    [CTDB TOCID: 0PtU1WbGSsxV1vDHqZk0a38V1xk-] found.
    Track | CTDB Status
    1 | (2/2) Accurately ripped
    2 | (2/2) Accurately ripped
    3 | (2/2) Accurately ripped
    4 | (2/2) Accurately ripped
    5 | (2/2) Accurately ripped
    6 | (2/2) Accurately ripped
    7 | (2/2) Accurately ripped
    8 | (2/2) Accurately ripped
    9 | (2/2) Accurately ripped
    10 | (2/2) Accurately ripped
    11 | (2/2) Accurately ripped
    12 | (2/2) Accurately ripped
    13 | (2/2) Accurately ripped
    14 | (2/2) Accurately ripped
    15 | (2/2) Accurately ripped
    16 | (2/2) Accurately ripped
    17 | (2/2) Accurately ripped
    18 | (2/2) Accurately ripped
    19 | (2/2) Accurately ripped
    20 | (2/2) Accurately ripped
    [AccurateRip ID: 002aa1c2-0272ab55-240dff14] disk not present in database.

    Track Peak [ CRC32 ] [W/O NULL] [ LOG ]
    -- 98,8 [305E0822] [A73A8A5D] CRC32
    01 64,1 [B83C3894] [76CD22A2]
    02 58,6 [786D7171] [1CA312F1]
    03 76,3 [6080F4E5] [D05CAA35]
    04 86,6 [ADE78707] [E538FE71]
    05 78,6 [098CD5C4] [F90A2647]
    06 62,4 [A58724E5] [4E7CAE39]
    07 82,5 [4D4F676E] [128D37B8]
    08 76,2 [A836D809] [940043A0]
    09 69,5 [E40D149E] [39F611FC]
    10 63,3 [38FEBD75] [E64708C5]
    11 93,6 [F1ED77AE] [428D815A]
    12 69,6 [3F638029] [0D2C6CD3]
    13 98,8 [31E544BE] [248B0F87]
    14 70,7 [C12EED5D] [0DFB6D84]
    15 78,2 [2E2C04E5] [E5B795CF]
    16 71,7 [2222D382] [D6137C7B]
    17 54,6 [A8FCE9A3] [E90922B5]
    18 69,9 [10516B1D] [570E0EBF]
    19 76,6 [68CD06C0] [15C3CD75]
    20 61,0 [06A1D1DE] [96497EDB]


    All thanks go to Erik
    Download:




    Free Full Download The Walkers - Greatest Hits (2010) form MediaFire.com link RapidShare, Uploaded.to, Zippyshare, FileSonic, turbobit.net, ul.to, ORON, DepositFiles, rapidgator.net, letitbit.net, extabit.com, filefactory.com. The Walkers - Greatest Hits (2010) Torrent Download with keygen, crack, serial, 1080p, hdrip, 720p, 2015, 2016

    VA - 100 Hits Legends: Part 1 (2009 - 2010)


    VA - 100 Hits Legends: Part 1 (2009 - 2010)
    Easy Listening, Pop, Jazz, Vocal | MP3 CBR 320 kbps | 3,39 Gb
    Label: 101 DISTRIBUTION | Release Year: 2009-2010
    “Five CD sets containing 100 classic tracks by legendary artists, one of the biggest selling and best remembered musical icons of all time.”...

    Tony Joe White - Black And White (1969) Reissue 1996


    Tony Joe White - Black And White (1969) Reissue 1996
    EAC | FLAC | Image (Cue&Log) ~ 280 Mb (incl 5%) | Mp3 (CBR320) ~ 125 Mb (incl 5%) | Time: 00:41:48 | Scans included
    Genre: Singer/Songwriter, Country, Pop-Soul, Swamp Rock | Label: Warner Bros. | # 9362-46364-2
    “When "Polk Salad Annie" blared from transistor radio speakers in the summer of 1969, the...

    Cory Morrow - The Good Fight (2015)


    Cory Morrow - The Good Fight (2015)
    Country | MP3 CBR 320 kbps | 00:57:45 | 136 MB
    Label: Write On Records | Release Year: 2015
    After finding himself in 2010's release of Brand New Me, Cory Morrow spent the next five years searching for the meaning of life. Becoming one with his wife brought them two boys before welcoming twin boys in the fall of 2014. Raising four boys...

    James Last - Classics By Moonlight (1990 Polydor # 843 471-2) Repost


    James Last - Classics By Moonlight
    EAC+LOG+CUE | FLAC: 291 MB | Full Artwork: 27 MB | 5% Recovery Info
    Label/Cat#: Polydor # 843 471-2 | Country/Year: Germany 1990
    Genre: Pop, Classical | Style: Easy Listening, Instrumental
    “"James Last is a German big band leader with a large fan base in Europe, although he has never had a comparable following in the United...

    Dean Martin - The Essential Dean Martin 2CD (2014)


    Dean Martin - The Essential Dean Martin 2CD (2014)
    MP3 320 kbps CBR | 106:18 min | 253 MB
    Genre: Jazz, Swing, Easy Listening | Label: Sony Music
    Though he was regarded as one of the best singers of his generation, Dean Martin initially rose to fame as part of a comedy act. In 1946, Martin teamed up with funnyman Jerry Lewis, and the two were soon a sensation, headlining at...

    VA - Best Of Bossa Lounge 2 2CD (2010)


    VA - Best Of Bossa Lounge 2 2CD
    Lo-Fi, Lounge, Jazzy, Bossa | mp3 190.8kbps avg | Playtime: 152:32 min | Size: 208,5 MB
    Label: Chet Records | Tracks: 40 | Rls.date: 2010-12-01
    Finest selection of 40 great Classics of Pop History in a Bossa style! - Excellent versions of world hits by Madonna, Sade, Tears For Fears, INXS, U2, Michael Jackson, Rolling Stones, Rod Stewart, Human...

    VA - Monte Carlo Nights - Nouveau Beat - Vol.5 (2010)


    VA - Monte Carlo Nights - Nouveau Beat - Vol.5 (2010)
    2CD | 31 Tracks | MP3 256 Kbps | 256 Mb
    Genre: Chill out, Lounge | Date: 7 September 2010 | Label: EMI
    L'avventura musicale della collection Nouveau Beat si arricchisce di un nuovo, emozionante capitolo. E' uscito infatti nei negozi di dischi e in versione digitale su iTunes “NOUVEAU BEAT VOL 5”, il doppio cd...

    Jes - Into The Dawn (The Hits Disconnected) 2008


    Jes - Into The Dawn (The Hits Disconnected)
    Chillout, Downtempo, Vocal | MP3 | 320 kbps / 44.1 KHz / Stereo
    Publisher: TME/Open Gate Records | 2008 | 125 Mb (Rar 3% Recovery)
    RapidShare, LetItBit, TurboBit, Vip-File, Sms4file...

    Andy Williams - Original Album Collection Vol. 1 (2013) Mini LP 8 CD Box Set


    Andy Williams - Original Album Collection Vol. 1 (2013) Mini LP 8 CD Box Set
    EAC | FLAC | Image (Cue&Log) ~ 2.11 Gb | Mp3 (CBR320) ~ 1.01 Mb | Scans ~ 351 Mb
    Genre: Easy Listening, Vocal Pop, Traditional Pop | Label: Sony Music | # SICP-3742~9 | Time: 04:36:02
    “Japanese original release. First box set of Andy Williams includes seven original albums "Canadian...

    Dolly Parton - Halos And Horns (2002)


    Dolly Parton - Halos And Horns (2002)
    1CD | EAC-Rip | APE-image +cue +log +COVERS | July 9, 2002 | 342,18 Mb
    Genre: Country | RAR 3% Rec. | Label: Sugarhill
    RS.com + HF.com, Turbobit, Sharingmatrix
    Like many musicians profoundly moved by the events of September 11, Dolly Parton reacted to the tragedy by going inward and forging a spiritual journey through songwriting. As...

    Add comment
    Try to express their thoughts correctly and succinctly


Bryan Adams - Discography (1979-2015)
Bryan Adams - Discography 1979-2015 (28 Albums, 52CD+23 Singles) Genre: Rock ||
VA - Masterpieces of Chillout (2015)
Masterpieces of Chillout (2015) Label: Jizoom | Genre: Downtempo, Chillout,
Barrett Baber - The Complete Season 9 Collection (The Voice
Release Name: Barrett Baber - The Complete Season 9 Collection (The Voice
John Williams - Star Wars: The Force Awakens - Original Motion
John Williams - Star Wars: The Force Awakens - Original Motion Picture
The Teacher-Friendly Guide to Climate Change
The Teacher-Friendly Guide to Climate Change by Ingrid H. H. Zabel English |
Clinical Photography in Dentistry
Clinical Photography in Dentistry: A New Perspective Quintessence | English |
Business Statistics
Business Statistics by Richard D. De Veaux English | 23 Jan. 2014 | ISBN:
Surgical Design for Dental Reconstruction with Implants
Surgical Design for Dental Reconstruction with Implants: A New Paradigm
Realtime Landscaping Architect 2016 16.07 180119
Realtime Landscaping Architect 2016 16.07 180119 Realtime Landscaping
Cycles And Spots Ibiza Chill WAV MiDi 180119
Cycles And Spots Ibiza Chill WAV MiDi 180119 Cycles And Spots Ibiza Chill
Cycles And Spots 80s Pop WAV MiDi 180119
Cycles And Spots 80s Pop WAV MiDi 180119 Cycles And Spots 80s Pop WAV MiDi |
Cycles And Spots 90s House WAV MiDi 180119
Cycles And Spots 90s House WAV MiDi 180119 Cycles And Spots 90s House WAV
Abstract oil painting 1 - 5 UHQ JPEG
Abstract oil painting 1 - 5 UHQ JPEG 5 UHQ JPEG | 5760X3840 | 300 DPI | 28 MB
Juice and Fresh UHQ JPG
Juice and Fresh UHQ JPG 10 UHQ JPG | up to 8000x5323 Pixels | 102 Mb
Girl in abstraction - 6 UHQ JPEG
Girl in abstraction - 6 UHQ JPEG 6 UHQ JPEG | 5915X4212 | 300 DPI | 60 MB
Flyer Psd Template - Farmer Flyer Business
Flyer Psd Template - Farmer Flyer Business PSD | 1275x1875 PIX | fontinfo |

Download Torrents. Fast and Free Torrent Downloads.

Not Store Any File In Server. The Links Are Provided Solely By This Site's Users.

If You Have Any Doubts About Legality Of Content, Feel Free To Contact US.
© 2015 - 2016