Torrent HaHa

Free download any torrents what you need
    New Download Links
    Speed
     kbps
     kbps
     kbps

    B.B. King - Spotlight On Lucille (1986) Reissue 1991

    Category: Music data: 20-12-2015, 20:25
    Rating:
    (votes: 0)

    B.B. King - Spotlight On Lucille (1986)
    EAC | FLAC | Image (Cue&Log) ~ 294 Mb (incl 5%) | Mp3 (CBR320) ~ 118 Mb (incl 5%) | Scans included
    Genre: Electric Blues, Soul-Blues, Memphis Blues | Label: Flair/Virgin America | # 0777 7 86231 2 0 | Time: 00:43:01

    B.B. King is the most influential guitarist in the instrument's electric history. His string-bending, vibrato, and phrasing are the raw material that players as diverse as Led Zeppelin's Jimmy Page and Pink Floyd's David Gilmour have spun into their own epic solos. This CD draws on King's '60s efforts for the defunct Kent label, tapping rarely heard instrumental tracks to present a crash course in his unique fusion of country blues, the single-string soloing perfected by Lonnie Johnson, and the swinging phrasing of jazz guitar pioneers like Charlie Christian and Django Reinhardt. Tunes like "Slidin' and Glidin'" and "Calypso Jazz" are tickets to blues heaven.

    Review by Ted Drozdowski, Amazon.com


    From the contemporary-looking cover, this would appear to be recently recorded material. But wait -- these are all 1950s/early-'60s instrumentals from the Modern/Kent vaults, spotlighting B.B. King's pristine lead guitar in an often jazzier mode than he usually adopted in the studio. His workout on Louis Jordan's "Just like a Woman" is a tour de force that's been reissued often, but much of the compilation is rare stuff that gives Lucille her full due.

    Review by Bill Dahl, Allmusic.com


    B.B. King at Allmusic
    B.B. King Website
    B.B. King at Wiki

    Tracklist:

    01. Slidin' And Glidin' (03:59)
    02. Blues With B.B. (09:42)
    03. King Of Guitar (02:40)
    04. Jump With B.B. (02:57)
    05. 38th Street Blues (02:28)
    06. Feedin' The Rock (02:37)
    07. Just Like A Woman (03:16)
    08. Step It Up (02:24)
    09. Calypso Jazz (05:00)
    10. Easy Listening Blues (02:37)
    11. Shoutin' The Blues (02:42)
    12. Powerhouse (02:33)


    EAC log
    Exact Audio Copy V0.99 prebeta 4 from 23. January 2008

    EAC extraction logfile from 7. March 2009, 19:51

    B.B. King / Spotlight On Lucille

    Used drive : HL-DT-STDVD-RAM GH22NP20 Adapter: 0 ID: 0

    Read mode : Secure
    Utilize accurate stream : Yes
    Defeat audio cache : Yes
    Make use of C2 pointers : No

    Read offset correction : 102
    Overread into Lead-In and Lead-Out : No
    Fill up missing offset samples with silence : Yes
    Delete leading and trailing silent blocks : No
    Null samples used in CRC calculations : Yes
    Used interface : Native Win32 interface for Win NT & 2000

    Used output format : User Defined Encoder
    Selected bitrate : 1024 kBit/s
    Quality : High
    Add ID3 tag : No
    Command line compressor : C:Program Files (x86)Exact Audio CopyFlacflac.exe
    Additional command line options : -V -8 -T "artist=%a" -T "title=%t" -T "album=%g" -T "date=%y" -T "tracknumber=%n" -T "genre=%m" %s
    Use compression offset : 0 TOC of the extracted CD

    Track | Start | Length | Start sector | End sector
    ---------------------------------------------------------
    1 | 0:00.62 | 3:59.10 | 62 | 17996
    2 | 3:59.72 | 9:42.05 | 17997 | 61651
    3 | 13:42.02 | 2:40.63 | 61652 | 73714
    4 | 16:22.65 | 2:57.42 | 73715 | 87031
    5 | 19:20.32 | 2:28.63 | 87032 | 98194
    6 | 21:49.20 | 2:37.70 | 98195 | 110039
    7 | 24:27.15 | 3:16.07 | 110040 | 124746
    8 | 27:43.22 | 2:24.55 | 124747 | 135601
    9 | 30:08.02 | 5:00.23 | 135602 | 158124
    10 | 35:08.25 | 2:37.45 | 158125 | 169944
    11 | 37:45.70 | 2:42.20 | 169945 | 182114
    12 | 40:28.15 | 2:33.17 | 182115 | 193606 Range status and errors

    Selected range

    Filename D:RipsB.B. King - Spotlight On Lucille.wav

    Peak level 100.0 %
    Range quality 100.0 %
    Test CRC FF938B93
    Copy CRC FF938B93
    Copy OK

    No errors occurred


    AccurateRip summary

    Track 1 accurately ripped (confidence 2) [ABB99F59]
    Track 2 accurately ripped (confidence 2) [7285E343]
    Track 3 accurately ripped (confidence 2) [9CE47DA2]
    Track 4 accurately ripped (confidence 2) [52C75515]
    Track 5 accurately ripped (confidence 2) [20FF056B]
    Track 6 accurately ripped (confidence 2) [EB78D9FE]
    Track 7 accurately ripped (confidence 2) [AE20B319]
    Track 8 accurately ripped (confidence 2) [60724535]
    Track 9 accurately ripped (confidence 2) [2C11E7AB]
    Track 10 accurately ripped (confidence 2) [7AED5D50]
    Track 11 accurately ripped (confidence 2) [F71E5353]
    Track 12 accurately ripped (confidence 2) [D86B85D9]

    All tracks accurately ripped

    End of status report

    AR log
    [CUETools log; Date: 24.04.2015 13:14:11; Version: 2.1.4]
    Pregap length 00:00:62.
    Truncated 4608 extra samples in some input files.
    [CTDB TOCID: CbAojfKFD4BR4uVf6NXNYMAwv8o-] found.
    Track | CTDB Status
    1 | (3/3) Accurately ripped
    2 | (3/3) Accurately ripped
    3 | (3/3) Accurately ripped
    4 | (3/3) Accurately ripped
    5 | (3/3) Accurately ripped
    6 | (3/3) Accurately ripped
    7 | (3/3) Accurately ripped
    8 | (3/3) Accurately ripped
    9 | (3/3) Accurately ripped
    10 | (3/3) Accurately ripped
    11 | (3/3) Accurately ripped
    12 | (3/3) Accurately ripped
    [AccurateRip ID: 00158ee2-00c18240-8a0a150c] found.
    Track [ CRC | V2 ] Status
    01 [abb99f59|fe7306b0] (06+05/14) Accurately ripped
    02 [7285e343|e9bd69f3] (06+05/14) Accurately ripped
    03 [9ce47da2|88dde41b] (06+05/14) Accurately ripped
    04 [52c75515|c7e8be9a] (06+05/14) Accurately ripped
    05 [20ff056b|8ed07080] (06+05/14) Accurately ripped
    06 [eb78d9fe|0e947948] (06+05/14) Accurately ripped
    07 [ae20b319|bfb50f2f] (06+05/14) Accurately ripped
    08 [60724535|1fcc0ebb] (06+05/14) Accurately ripped
    09 [2c11e7ab|b5ec44c7] (05+05/13) Accurately ripped
    10 [7aed5d50|de5e3496] (06+05/14) Accurately ripped
    11 [f71e5353|70357d58] (06+05/14) Accurately ripped
    12 [d86b85d9|87829f6f] (06+05/14) Accurately ripped
    Offsetted by 1547:
    01 [515ecc4c] (03/14) Accurately ripped
    02 [e8a9f84e] (03/14) Accurately ripped
    03 [1f4ee290] (03/14) Accurately ripped
    04 [2c5569f6] (03/14) Accurately ripped
    05 [767e8d9b] (03/14) Accurately ripped
    06 [49cc953b] (03/14) Accurately ripped
    07 [f23a804f] (03/14) Accurately ripped
    08 [512df968] (03/14) Accurately ripped
    09 [e92b8f8c] (03/13) Accurately ripped
    10 [6785e7f5] (03/14) Accurately ripped
    11 [3b8fb20d] (03/14) Accurately ripped
    12 [730f249b] (03/14) Accurately ripped
    Offsetted by 1530:
    01 [b4d32303] (00/14) No match (V2 was not tested)
    02 [17309b3d] (00/14) No match (V2 was not tested)
    03 [1de00066] (00/14) No match (V2 was not tested)
    04 [9207e583] (00/14) No match (V2 was not tested)
    05 [9cf07e0b] (00/14) No match (V2 was not tested)
    06 [16200ef4] (00/14) No match (V2 was not tested)
    07 [f9eb72cd] (00/14) No match (V2 was not tested)
    08 [83fc165f] (00/14) No match (V2 was not tested)
    09 [dbd6e219] (00/13) No match (V2 was not tested)
    10 [054656f6] (00/14) No match (V2 was not tested)
    11 [cfe878bf] (00/14) No match (V2 was not tested)
    12 [ea53acb5] (00/14) No match (V2 was not tested)

    Track Peak [ CRC32 ] [W/O NULL] [ LOG ]
    -- 100,0 [FF938B93] [11170C6B] CRC32
    01 92,9 [E4688DA0] [7C8FEE9B]
    02 92,2 [D635A4F4] [96EC944E]
    03 90,1 [5F3345F8] [8C570BA8]
    04 85,0 [9DC4932B] [316D673A]
    05 82,9 [18B8F65D] [BCEF2591]
    06 99,0 [70A86EA2] [85C93411]
    07 93,3 [E7232445] [B7562AF0]
    08 85,4 [BC1E7570] [190F2FAC]
    09 100,0 [1C95CBC3] [E7BE5D8A]
    10 83,9 [3175B7B6] [115F5650]
    11 83,8 [E15B360E] [E888DE69]
    12 86,3 [B853BFED] [14ED20A5]

    DR log
    foobar2000 1.2 / Dynamic Range Meter 1.1.1
    log date: 2015-04-24 12:14:03

    --------------------------------------------------------------------------------
    Analyzed: B.B. King / Spotlight On Lucille
    --------------------------------------------------------------------------------

    DR Peak RMS Duration Track
    --------------------------------------------------------------------------------
    DR11 -0.63 dB -15.00 dB 3:59 01-Slidin' And Glidin'
    DR11 -0.70 dB -14.49 dB 9:42 02-Blues With B.B.
    DR9 -0.90 dB -12.34 dB 2:41 03-King Of Guitar
    DR9 -1.41 dB -12.73 dB 2:58 04-Jump With B.B.
    DR10 -1.62 dB -12.83 dB 2:29 05-38th Street Blues
    DR11 -0.09 dB -13.38 dB 2:38 06-Feedin' The Rock
    DR9 -0.60 dB -11.74 dB 3:16 07-Just Like A Woman
    DR9 -1.36 dB -12.45 dB 2:25 08-Step It Up
    DR10 0.00 dB -13.06 dB 5:00 09-Calypso Jazz
    DR10 -1.52 dB -14.96 dB 2:38 10-Easy Listening Blues
    DR9 -1.53 dB -11.34 dB 2:42 11-Shoutin' The Blues
    DR8 -1.27 dB -11.70 dB 2:33 12-Powerhouse
    --------------------------------------------------------------------------------

    Number of tracks: 12
    Official DR value: DR10

    Samplerate: 44100 Hz
    Channels: 2
    Bits per sample: 16
    Bitrate: 867 kbps
    Codec: FLAC
    ================================================================================







    Free Full Download B.B. King - Spotlight On Lucille form MediaFire.com link RapidShare, Uploaded.to, Zippyshare, FileSonic, turbobit.net, ul.to, ORON, DepositFiles, rapidgator.net, letitbit.net, extabit.com, filefactory.com. B.B. King - Spotlight On Lucille (1986) Reissue 1991 Torrent Download with keygen, crack, serial, 1080p, hdrip, 720p, 2015, 2016

    Linda Clifford - If My Friends Could See Me Now (1978) 1996 Remastered Reissue


    Linda Clifford - If My Friends Could See Me Now (1978) [1996, Remastered Reissue]
    R&B, Soul/Funk, Disco | EAC Rip | FLAC, Img+CUE + LOG + Full Artwork-300dpi (JPEG) | 39:38 Min | 250,82 Mb
    Label: Charly Records (UK) / Curtom Records Inc. (USA) | Released: 1996, February, 2
    “If My Friends Could See Me Now is the second studio album by American singer Linda Clifford,...

    Albert King - Blues At Sunset (Live At Wattstax And Montreux) (1973) Remastered 1993


    Albert King - Blues At Sunset (Live At Wattstax And Montreux) (1973) Remastered 1993
    EAC | FLAC | Image (Cue&Log) ~ 305 Mb (incl 5%) | Mp3 (CBR320) ~ 131 Mb (incl 5%) | Scans included
    Genre: Modern Electric Blues, Soul-Blues | Label: Stax | # SCD 8581-2 | Time: 00:49:24
    “Blues at Sunset is a Blues album by Albert King, recorded live at Wattstax (August 20, 1972) and...

    Karol Szymanowski - Król Roger (Kwiecien / Pappano) 2015 HDTV 720p


    Karol Szymanowski - King Roger (Kwiecien / Pappano) 2015 [HDTV 720p]
    AVC, 1280x720p (16:9), 2.2 mbps, 25 fps | English, AAC-LC 128-384 kbps, 2 ch | 01:27:39 | 1.5 GB
    Classical, Opera | Royal Opera House | HDTV->MP4
    Kasper Holten presents a new production of Szymanowski's sumptuously scored opera King Roger, a meditation on identity and desire. Recorded live at the...

    Tony Joe White - Black And White (1969) Reissue 1996


    Tony Joe White - Black And White (1969) Reissue 1996
    EAC | FLAC | Image (Cue&Log) ~ 280 Mb (incl 5%) | Mp3 (CBR320) ~ 125 Mb (incl 5%) | Time: 00:41:48 | Scans included
    Genre: Singer/Songwriter, Country, Pop-Soul, Swamp Rock | Label: Warner Bros. | # 9362-46364-2
    “When "Polk Salad Annie" blared from transistor radio speakers in the summer of 1969, the...

    Servi - Meditatio in Variatione (1995) Reissue 2002


    Servi - Meditatio in Variatione (1995) [Reissue 2002]
    EAC Rip | FLAC (tracks+.cue+log) - 268 MB | MP3 CBR 320 kbps (LAME 3.93) - 122 MB | Covers - 129 MB
    Genre: Electronic, Ambient, New Age | RAR 3% Rec. | Label: ServiSound (CD 1.14-95-3)
    “Meditatio in Variatione is the multimedia programme from Servi’s musicians and composers Jan Bilk and Tomaš Nawka. The Sorb...

    Cerrone - Cerrone 3: Supernature (1977) 1997 Reissue


    Cerrone - Cerrone 3: Supernature (1977)
    EAC Rip | FLAC (Img) + Cue + Log ~ 266 Mb | MP3 CBR320 ~ 110 Mb
    Scans Included (JPG, 600 dpi) | RAR 5% Recovery
    Disco | Unidisc Music Inc. #AGEK-2175
    “Recorded during the summer of 1977, the ambitious Supernature was a surprising departure from Cerrone's two previous albums, Love in C Minor and Cerrone's Paradise....

    Bowman Chance King Caudle - Couperin: Lecons De Tenebres (2013)


    Bowman, Chance, King, Caudle - Couperin: Lecons De Tenebres (2013)
    EAC Rip | Flac (Image + cue + log) | 229 MB | MP3 320Kbps CBR | 150 MB | 1 CD | Full Scans
    Genre: Classical | Label: Helios | Catalog Number: 55455
    “Couperin’s Trois Leçons de Ténèbres are amongst the small amount of the composer’s sacred music that was published during his lifetime. They are intensely...

    Ferenc Aszodi - Trompeten Impressionen (1980 CD reissue 1985 Intercord # INT 830.044)


    Ferenc Aszodi - Trompeten Impressionen
    EAC+LOG+CUE | FLAC: 266 MB | Full Artwork: 28 MB | 5% Recovery Info
    Label/Cat#: Intercord # INT 830.044 | Country/Year: Germany 1985, 1980
    Genre: Pop | Style: Easy Listening, Instrumental
    “"...1956 kam Ferenc Aszodi nach Deutschland: Schon zwei Monate nach seiner Ankunft wurde er die erste Trompete des Max Greger...

    Gregorian - Masters Of Chant Chapter II (2001) (Japan Edition)


    Gregorian - Masters Of Chant Chapter II (2001) (Japan Edition)
    New Age | 1cd | EAC Rip | Flac + Cue + Log | covers
    Edel/Network Records, NXCB-00030 | rel: 2001 | 730Mb
    Gregorian is a German band headed by Frank Peterson that performs Gregorian chant-inspired versions of modern pop and rock songs. The band features both vocal harmony and instrumental accompaniment. Originally,...

    Johnny Cash - Come Along And Ride This Train (1991) 4CD Box Bear Family BCD 15563


    Johnny Cash - Come Along And Ride This Train (1991) [4CD Box, Bear Family BCD 15563]
    Country | EAC Rip | Flac(Image) + Cue + Log | MP3 CBR 320Kbps | Covers -> 21 Mb
    Bear Family Records | BCD 15563 | ~1456 + 687 Mb | FileSonic, HotFile
    “It's a statement of Johnny Cash's longevity that the eight albums collected here -- each one a concept collection devoted...

    Add comment
    Try to express their thoughts correctly and succinctly


Bryan Adams - Discography (1979-2015)
Bryan Adams - Discography 1979-2015 (28 Albums, 52CD+23 Singles) Genre: Rock ||
VA - Masterpieces of Chillout (2015)
Masterpieces of Chillout (2015) Label: Jizoom | Genre: Downtempo, Chillout,
Barrett Baber - The Complete Season 9 Collection (The Voice
Release Name: Barrett Baber - The Complete Season 9 Collection (The Voice
John Williams - Star Wars: The Force Awakens - Original Motion
John Williams - Star Wars: The Force Awakens - Original Motion Picture
Mobile Forensics Cookbook
Igor Mikhaylov, "Mobile Forensics Cookbook" English | ISBN: 1785282050 | 2018 |
Responsive Web Design by Example
Frahaan Hussain, "Responsive Web Design by Example: Embrace responsive design
Textbook of Physical Chemistry
Textbook Of Physical Chemistry by H. K. Moudgil English | 1 July 2010 | ISBN:
The Complete Companion for AQA Psychology A Level: Year 2
The Complete Companion for AQA Psychology A Level: Year 2 Fourth Edition
Adobe Dreamweaver CC 2018 v18.0.0.10136 (x86/x64) Multilingual
Adobe Dreamweaver CC 2018 v18.0.0.10136 (x86/x64) Multilingual Portable 180113
Adobe Muse CC 2018 v2018.0.0.685 Multilingual macOS 180113
Adobe Muse CC 2018 v2018.0.0.685 Multilingual macOS 180113 Adobe Muse CC
Adobe Photoshop Lightroom Classic CC 2018 v7.0 MacOSX 180113
Adobe Photoshop Lightroom Classic CC 2018 v7.0 MacOSX 180113 Adobe Photoshop
Adobe Photoshop Lightroom Classic CC 2018 v7.0.0.10 (x64)
Adobe Photoshop Lightroom Classic CC 2018 v7.0.0.10 (x64) Multilingual Portable
Abstract oil painting 1 - 5 UHQ JPEG
Abstract oil painting 1 - 5 UHQ JPEG 5 UHQ JPEG | 5760X3840 | 300 DPI | 28 MB
Juice and Fresh UHQ JPG
Juice and Fresh UHQ JPG 10 UHQ JPG | up to 8000x5323 Pixels | 102 Mb
Girl in abstraction - 6 UHQ JPEG
Girl in abstraction - 6 UHQ JPEG 6 UHQ JPEG | 5915X4212 | 300 DPI | 60 MB
Flyer Psd Template - Farmer Flyer Business
Flyer Psd Template - Farmer Flyer Business PSD | 1275x1875 PIX | fontinfo |

Download Torrents. Fast and Free Torrent Downloads.

Not Store Any File In Server. The Links Are Provided Solely By This Site's Users.

If You Have Any Doubts About Legality Of Content, Feel Free To Contact US.
© 2015 - 2016