Torrent HaHa

Free download any torrents what you need
    New Download Links
    Speed
     kbps
     kbps
     kbps

    Keiko Matsui - A Drop of Water (1987)

    Category: Music data: 20-12-2015, 20:25
    Rating:
    (votes: 3)
    Keiko Matsui - A Drop of Water (1987) front

    Keiko Matsui - A Drop of Water (1987)
    EAC | Flac(Image) + Cue + Log & MP3 CBR 320Kbps
    1993 | White Cat/Unity, 77710-2 | ~ 275 or 111 Mb | Scans Included
    Smooth Jazz / New Age

    This auspicious introduction to the many aspects of the composer's skills finds her surrounded by a slew of L.A.'s top players, some of whom had yet to begin their own solo careers at this point: Grant Geissman, Brandon Fields, Robben Ford, Nathan East, Vinnie Colaiuta, and Jimmy Johnson. Matsui balances a mystic Eastern edge with a lighthearted new agey pop appeal. "Ancient Wind" and the Geissman co-composition "Mediterranean Sand" are the best cuts, building from pastoral ideas into an explosive ensemble hook. Matsui also showed her penchant for soulful vocal pieces, using Abu Khalil and Marva King to varying effectiveness. The emotional vocal title cut was inspired by Challenger astronaut Ron McNair.

    by Jonathan Widran, AMG

    Keiko Matsui


    Keiko Matsui - A Drop of Water (1987):

    Keiko Matsui - A Drop of Water (1987) cd

    Tracklist:

    01. Ancient Wind
    02. Light Above the Trees
    03. Harbor Wind
    04. Mediterranean Sea
    05. A Drop of Water
    06. From My Window
    07. Only Way Home
    08. Fairy
    09. Paper Spirit

    Musicians:

    Bass – Jimmy Johnson, Mat Bissonette, Nathan East
    Drums – Greg Bissonette, Vinnie Colaiuta
    Flugelhorn – Walt Fowler
    Guitar – Grant Geisman, Robben Ford
    Keyboards – David Garfield, Keiko Matsui
    Percussion – Michael Fisher
    Producer – Kazu Matsui
    Saxophone – Brandon Fields


    EAC Log
    Exact Audio Copy V1.0 beta 3 from 29. August 2011

    Отчёт EAC об извлечении, выполненном 28. мая 2012, 20:39

    Keiko Matsui / A Drop of Water

    Дисковод: PIONEER DVD-RW DVR-118L Adapter: 0 ID: 0

    Режим чтения : Достоверность
    Использование точного потока : Да
    Отключение кэша аудио : Да
    Использование указателей C2 : Нет

    Коррекция смещения при чтении : 6
    Способность читать области Lead-in и Lead-out : Нет
    Заполнение пропущенных сэмплов тишиной : Да
    Удаление блоков с тишиной в начале и конце : Нет
    При вычислениях CRC использовались нулевые сэмплы : Да
    Интерфейс : Встроенный Win32-интерфейс для Win NT/2000

    Выходной формат : Пользовательский кодировщик
    Выбранный битрейт : 1024 kBit/s
    Качество : Высокий
    Добавление ID3-тега : Нет
    Утилита сжатия : C:Program FilesFLACflac.exe
    Дополнительные параметры : -V -8 -T "Date=%year%" -T "Genre=%genre%" %source% TOC извлечённого CD

    Трек | Старт | Длительность | Начальный сектор | Конечный сектор
    ---------------------------------------------------------------------
    1 | 0:00.50 | 6:22.30 | 50 | 28729
    2 | 6:23.05 | 4:48.35 | 28730 | 50364
    3 | 11:11.40 | 5:40.62 | 50365 | 75926
    4 | 16:52.27 | 4:20.03 | 75927 | 95429
    5 | 21:12.30 | 5:24.42 | 95430 | 119771
    6 | 26:36.72 | 5:10.73 | 119772 | 143094
    7 | 31:47.70 | 3:07.30 | 143095 | 157149
    8 | 34:55.25 | 4:34.22 | 157150 | 177721
    9 | 39:29.47 | 4:49.58 | 177722 | 199454 Характеристики диапазона извлечения и сообщения об ошибках

    Выбранный диапазон

    Имя файла J:Раздачи 3Keiko Matsui _ A drop of water_1987_by ikatsuro.EW8A_Keiko Matsui - A Drop of Water.wav

    Пиковый уровень 100.0 %
    Скорость извлечения 1.7 X
    Качество диапазона 100.0 %
    CRC теста 3402CA19
    CRC копии 3402CA19
    Копирование... OK

    Ошибок не произошло


    AccurateRip: сводка

    Трек 1 : извлечено точно (доверие 6) [E04C7ED4] (AR v1)
    Трек 2 : извлечено точно (доверие 6) [7D08944E] (AR v1)
    Трек 3 : извлечено точно (доверие 6) [471A4659] (AR v1)
    Трек 4 : извлечено точно (доверие 6) [75594AEF] (AR v1)
    Трек 5 : извлечено точно (доверие 6) [46457A9B] (AR v1)
    Трек 6 : извлечено точно (доверие 6) [36A5F186] (AR v1)
    Трек 7 : извлечено точно (доверие 6) [B95F10B7] (AR v1)
    Трек 8 : извлечено точно (доверие 6) [4C39CB00] (AR v1)
    Трек 9 : извлечено точно (доверие 6) [AF2D84BA] (AR v1)

    Все треки извлечены точно

    Конец отчёта

    ==== Контрольная сумма отчёта 49E9F581A9F314D5BAA1CEA64F7B4EB7D1A73522361E6B7BA83A02DADFC82724 ====

    DR Log
    foobar2000 1.2.9 / Dynamic Range Meter 1.1.1
    log date: 2015-05-28 15:34:30

    --------------------------------------------------------------------------------
    Analyzed: Keiko Matsui / A Drop of Water
    --------------------------------------------------------------------------------

    DR Peak RMS Duration Track
    --------------------------------------------------------------------------------
    DR13 0.00 dB -17.30 dB 6:22 01-Ancient Wind
    DR11 -1.71 dB -16.54 dB 4:48 02-Light Above the Trees
    DR13 0.00 dB -15.50 dB 5:41 03-Harbor Wind
    DR12 0.00 dB -15.97 dB 4:20 04-Mediterranean Sea
    DR12 0.00 dB -16.17 dB 5:25 05-A Drop of Water
    DR12 -2.15 dB -18.21 dB 5:11 06-From My Window
    DR10 -1.85 dB -13.71 dB 3:07 07-Only Way Home
    DR13 0.00 dB -15.80 dB 4:34 08-Fairy
    DR9 -2.70 dB -14.54 dB 4:50 09-Paper Spirit
    --------------------------------------------------------------------------------

    Number of tracks: 9
    Official DR value: DR12

    Samplerate: 44100 Hz
    Channels: 2
    Bits per sample: 16
    Bitrate: 822 kbps
    Codec: FLAC

    CUETools Log
    [CUETools log; Date: 28.05.2015 15:34:52; Version: 2.1.4]
    Pregap length 00:00:50.
    [CTDB TOCID: LZWCT7WbA1p7ecuxIxy4UgWQnpo-] found.
    Track | CTDB Status
    1 | (5/5) Accurately ripped
    2 | (5/5) Accurately ripped
    3 | (5/5) Accurately ripped
    4 | (5/5) Accurately ripped
    5 | (5/5) Accurately ripped
    6 | (5/5) Accurately ripped
    7 | (5/5) Accurately ripped
    8 | (5/5) Accurately ripped
    9 | (5/5) Accurately ripped
    [AccurateRip ID: 000ffc90-00735f30-7f0a6309] found.
    Track [ CRC | V2 ] Status
    01 [e04c7ed4|44dcb513] (07+08/28) Accurately ripped
    02 [7d08944e|93373a9c] (07+08/28) Accurately ripped
    03 [471a4659|ccc5e92b] (07+08/28) Accurately ripped
    04 [75594aef|5b4b5e0f] (07+08/28) Accurately ripped
    05 [46457a9b|5418fe5d] (07+08/28) Accurately ripped
    06 [36a5f186|8ae1c72a] (07+08/28) Accurately ripped
    07 [b95f10b7|e01391ab] (07+08/28) Accurately ripped
    08 [4c39cb00|27bc9f31] (07+08/28) Accurately ripped
    09 [af2d84ba|2070d2c0] (07+08/28) Accurately ripped
    Offsetted by -83:
    01 [2d9f442d] (03/28) Accurately ripped
    02 [320ee4b1] (03/28) Accurately ripped
    03 [bd4fc5ec] (03/28) Accurately ripped
    04 [ea96e8d3] (03/28) Accurately ripped
    05 [850a8ab1] (03/28) Accurately ripped
    06 [96a71e5e] (03/28) Accurately ripped
    07 [faff03ac] (03/28) Accurately ripped
    08 [9669fbdd] (03/28) Accurately ripped
    09 [bcc81d79] (03/28) Accurately ripped
    Offsetted by -71:
    01 [8839da89] (05/28) Accurately ripped
    02 [274ec065] (05/28) Accurately ripped
    03 [da7c78e0] (05/28) Accurately ripped
    04 [d68e0043] (05/28) Accurately ripped
    05 [381c50d9] (05/28) Accurately ripped
    06 [480064fe] (05/28) Accurately ripped
    07 [41b37498] (05/28) Accurately ripped
    08 [d5b64b29] (05/28) Accurately ripped
    09 [43c53a67] (05/28) Accurately ripped

    Track Peak [ CRC32 ] [W/O NULL] [ LOG ]
    -- 100,0 [3402CA19] [3E22671F] CRC32
    01 99,9 [C7904B39] [3874A652]
    02 82,1 [E190006A] [8A0DF44B]
    03 99,9 [C2391B6A] [1E0D799E]
    04 100,0 [F5A930A9] [F4D0F6E9]
    05 100,0 [31C03A91] [3F2124F9]
    06 78,0 [1A1808D6] [7A041429]
    07 80,8 [96B4B29A] [6817B70A]
    08 99,9 [2F393977] [C6FB7DCD]
    09 73,2 [C95941DD] [B9635D00]

    Keiko Matsui - A Drop of Water (1987) back

    All thanks go to ikatsuro.EW8A

    More Keiko Matsui in my Blog

    Download Keiko Matsui - A Drop of Water (1987):



    Free Full Download Keiko Matsui - A Drop of Water form MediaFire.com link RapidShare, Uploaded.to, Zippyshare, FileSonic, turbobit.net, ul.to, ORON, DepositFiles, rapidgator.net, letitbit.net, extabit.com, filefactory.com. Keiko Matsui - A Drop of Water (1987) Torrent Download with keygen, crack, serial, 1080p, hdrip, 720p, 2015, 2016

    GameCube: Mega Man Anniversary Collection (NTSC)


    GameCube: Mega Man Anniversary Collection (NTSC) | 1.35 GB
    Genre: 2D Platformer
    Link (s): hotfile | uploading | rapidshare
    For all the successful franchises Capcom has brought into the world over the years, it's hard to imagine where the company would be today had it not given figurative birth to everybody's favorite heroic, light-blue tinted robot boy, Mega Man....

    MetaMovie 2.0.2 Bilingual Retail


    MetaMovie 2.0.2 Bilingual Retail | MacOSX | 1.8 Mb
    If you build you own movie library in iTunes, then you want it to look perfect. Imagine having all of the information about a movie at hand - actors, release date, directors, overview etc. And of course you want nice looking cover arts for your library. MetaMovie brings all this to your movies. Just drop your movie files on the movie...

    Minkowski Les Musiciens Du Louvre - Handel: Water Music (2010)


    Minkowski, Les Musiciens Du Louvre - Handel: Water Music (2010)
    EAC Rip | Flac (Image + cue + log) | 309 MB | MP3 320Kbps CBR | 166 MB | 1 CD | Full Scans
    Genre: Classical | Label: Navie | Catalog Number: 5234
    “It’s an achievement when an artist can take a well-known work and interpret it freshly as if heard for the first time. This Marc Minkowski does with Handel’s...

    The Jazz Jousters - Location Nigeria (2015)


    The Jazz Jousters - Location Nigeria (2015)
    MP3 CBR 320 kbps | Tracks: 14 | 36:32 min | 104 Mb
    Style: Nu-Jazz, Downtempo, Afrobeat, World | Label: Millennium Jazz Music
    Millennium Jazz drop their fifth location release and get digging in the crates for that Afro Beat and Afro Jazz sound of Nigeria. Once again the group chose their favourite artists or bands to flip and fuse...

    Kadri Gopalnath James Newton Puvalur Srinivasan - Southern Brothers (1999)


    Kadri Gopalnath, James Newton, Puvalur Srinivasan - Southern Brothers (1999)
    EAC Rip | FLAC with CUE and log | scans | 245mb
    MP3 CBR 320kbps | RAR | 135mb
    Genre: Indian classical, world
    Southern Brothers is a 1999 collaboration album between Kadri Gopalnath, James Newton, and Puvalur Srinivasan. Gopalnath's instrument is the saxophone but brings it into the world of...

    Black - Wonderful Life (1987) Japanese Edition


    Black - Wonderful Life (1987)(Japan)
    EAC Rip | FLAC (Img) + Cue + Log ~ 280 Mb | MP3 CBR320 ~ 107 Mb
    Scans (PNG, 600 dpi) ~ 153 Mb | RAR 5% Recovery
    Pop Rock, New Wave, Synth-pop | A&M Records/Pony Canyon Inc. #D32Y3185
    “Wonderful Life is the debut album of English singer Black, released on August 31, 1987. It peaked at #3 on the UK Albums Chart in September of...

    James Harman - Bonetime (2015)


    James Harman - Bonetime (2015)
    EAC | FLAC | Image (Cue&Log) ~ 345 Mb (incl 5%) | Mp3 (CBR320) ~ 128 Mb (incl 5%) | Scans included
    Genre: Modern Electric Blues | Label: Electro-Fi Records | # Electro-Fi 3444 | Time: 00:51:38
    “Blues Legend James Harman returns with his Electro-Fi Records debut, Bonetime his first new Studio release in 12 years. It's been worth...

    Ray Conniff - Jean / Bridge Over Troubled Water (2 LP on 1 CD 2002) Re-Up


    Ray Conniff
    Jean / Bridge Over Troubled Water (2 LP on 1 CD , 2002)
    EAC Rip | FLAC+CUE+LOG | 1CD | Scans | 65Min. | 420mb
    Easy Listening Pop /LP Originally released in 1969
    Label: Sony Music Collectables / Catalogue: COL-CD-7457
    “Ray released these two albums in about 1969 and 1970 respectively. The quality and sound are first rate in these CD's. Good...

    Add comment
    Try to express their thoughts correctly and succinctly


Bryan Adams - Discography (1979-2015)
Bryan Adams - Discography 1979-2015 (28 Albums, 52CD+23 Singles) Genre: Rock ||
VA - Masterpieces of Chillout (2015)
Masterpieces of Chillout (2015) Label: Jizoom | Genre: Downtempo, Chillout,
Barrett Baber - The Complete Season 9 Collection (The Voice
Release Name: Barrett Baber - The Complete Season 9 Collection (The Voice
John Williams - Star Wars: The Force Awakens - Original Motion
John Williams - Star Wars: The Force Awakens - Original Motion Picture
1.e4 vs The Sicilian II
Parimarjan Negi, "1.e4 vs The Sicilian II" 2016 | ISBN-10: 1907982574 | 400
Introductory Digital Image Processing: A Remote Sensing
Introductory Digital Image Processing: A Remote Sensing Perspective, 4th
Shackelford's Surgery of the Alimentary Tract, 2 Volume Set, 8e
Shackelford's Surgery of the Alimentary Tract, 2 Volume Set, 8e 2018 | ISBN:
Adobe Premiere Pro CS6 Classroom in a Book
Adobe Premiere Pro CS6 Classroom in a Book Published: 2012-07-19 | ISBN:
NVIDIA GeForce Experience 2.11.2.49 Beta / 2.11.2.46 Final 180422
NVIDIA GeForce Experience 2.11.2.49 Beta / 2.11.2.46 Final 180422 NVIDIA
Wonderware InduSoft Web Studio 8.0 180422
Wonderware InduSoft Web Studio 8.0 180422 Wonderware InduSoft Web Studio 8.0
Zoom Player PRO 10.0.0.100 Final 180422
Zoom Player PRO 10.0.0.100 Final 180422 Zoom Player PRO 10.0.0.100 Final |
MacCleanse 5.0.0 | MacOSX 180422
MacCleanse 5.0.0 | MacOSX 180422 MacCleanse 5.0.0 | MacOSX | 24 MB
Abstract oil painting 1 - 5 UHQ JPEG
Abstract oil painting 1 - 5 UHQ JPEG 5 UHQ JPEG | 5760X3840 | 300 DPI | 28 MB
Juice and Fresh UHQ JPG
Juice and Fresh UHQ JPG 10 UHQ JPG | up to 8000x5323 Pixels | 102 Mb
Girl in abstraction - 6 UHQ JPEG
Girl in abstraction - 6 UHQ JPEG 6 UHQ JPEG | 5915X4212 | 300 DPI | 60 MB
Flyer Psd Template - Farmer Flyer Business
Flyer Psd Template - Farmer Flyer Business PSD | 1275x1875 PIX | fontinfo |

Download Torrents. Fast and Free Torrent Downloads.

Not Store Any File In Server. The Links Are Provided Solely By This Site's Users.

If You Have Any Doubts About Legality Of Content, Feel Free To Contact US.
© 2015 - 2016