Torrent HaHa

Free download any torrents what you need
    New Download Links
    Speed
     kbps
     kbps
     kbps

    Tape Five - Bossa For A Coup - Reloaded (2014)

    Category: Music data: 20-12-2015, 20:25
    Rating:
    (votes: 0)

    Tape Five - Bossa For A Coup - Reloaded (2014)
    EAC Rip | FLAC (Img) + Cue + Log ~ 545 Mb | MP3 CBR320 ~ 199 Mb
    Scans Included (JPG, 400 dpi) | RAR 5% Recovery
    Bossa Nova, Lounge, Chillout, Nu Jazz | ChinChin Records #AC 2095

    For years, Tape Five has expanding global record sales and millions of Spotify streams, it´s albums frequently appear in the top 40 charts of the big international online-retailers… Selected songs can be found on about a thousand compilations (“Café del Mar”, “Campari Lounge”, “Swing Mania” and many more), they can be heard on Ad-campaigns from Spain and Hongkong to the USA and are playlisted on countless radio stations. The multinational band based in Germany has successfully played venues including the UK, Switzerland, Holland, France, Hungary, Bulgaria, Romania, Ukraine, Russia, South Korea and Brazil bringing their own brand of uplifting swing and danceable mix of styles selling out the coolest clubs and concert halls all year round.

    Tape Five is an international studio project based in Germany created by multi-instrumentalist songwriter-producer Martin Strathausen. Tape Five combines a variety of styles and influences: The focus on Swing or Electro-Swing, but also Bossanova, Latin, Soul and NuJazz with their very own vivid retro interpretation in a classy way.


    ***************


    Track List:

    01. A New Mission [00:21]
    02. Soulsalicious [03:56]
    03. Senorita Bonita [03:52]
    04. Cancun (A tribute to Henry Mancini) [04:02]
    05. A Bossa Love [04:08]
    06. Taxi To Bombay [04:06]
    07. Longitude 54-21 [04:02]
    08. Bossa For A Coup [03:28]
    09. Club Of Cigale [03:53]
    10. Metro Bebop Scene [00:36]
    11. The Smell Of The Sidewalk [03:53]
    12. Love On A Rainy Day [04:52]
    13. Femme Libertan [03:56]
    14. Cats Walk Underground [04:02]
    15. Permanent Midnight [04:15]
    16. La Passifleur [05:18]
    17. Bossa For A Cup (Remix) [03:43]
    18. Taxi To Bombay (Feat. Dinesh Mishra) [04:05]
    19. Love On A Rainy Day (Radio Edit) [03:37]

    EAC Log
    Exact Audio Copy V1.0 beta 3 from 29. August 2011

    EAC extraction logfile from 10. June 2015, 14:12

    Tape Five / Bossa For A Coup

    Used drive : PIONEER BD-RW BDR-TD03 Adapter: 0 ID: 1

    Read mode : Secure
    Utilize accurate stream : Yes
    Defeat audio cache : Yes
    Make use of C2 pointers : No

    Read offset correction : 667
    Overread into Lead-In and Lead-Out : No
    Fill up missing offset samples with silence : Yes
    Delete leading and trailing silent blocks : No
    Null samples used in CRC calculations : Yes
    Used interface : Native Win32 interface for Win NT & 2000

    Used output format : User Defined Encoder
    Selected bitrate : 768 kBit/s
    Quality : High
    Add ID3 tag : No
    Command line compressor : C:Program Files (x86)Exact Audio CopyFLACFLAC.EXE
    Additional command line options : -6 -V -T "ARTIST=%artist%" -T "TITLE=%title%" -T "ALBUM=%albumtitle%" -T "DATE=%year%" -T "TRACKNUMBER=%tracknr%" -T "GENRE=%genre%" -T "COMMENT=%comment%" -T "BAND=%albuminterpret%" -T "ALBUMARTIST=%albuminterpret%" -T "COMPOSER=%composer%" %haslyrics%--tag-from-file=LYRICS="%lyricsfile%"%haslyrics% -T "DISCNUMBER=%cdnumber%" -T "TOTALDISCS=%totalcds%" -T "TOTALTRACKS=%numtracks%" %hascover%--picture="%coverfile%"%hascover% %source% -o %dest% TOC of the extracted CD

    Track | Start | Length | Start sector | End sector
    ---------------------------------------------------------
    1 | 0:00.00 | 0:20.64 | 0 | 1563
    2 | 0:20.64 | 3:55.23 | 1564 | 19211
    3 | 4:16.12 | 3:51.64 | 19212 | 36600
    4 | 8:08.01 | 4:01.01 | 36601 | 54676
    5 | 12:09.02 | 4:07.33 | 54677 | 73234
    6 | 16:16.35 | 4:05.24 | 73235 | 91633
    7 | 20:21.59 | 4:01.41 | 91634 | 109749
    8 | 24:23.25 | 3:27.11 | 109750 | 125285
    9 | 27:50.36 | 3:52.20 | 125286 | 142705
    10 | 31:42.56 | 0:35.03 | 142706 | 145333
    11 | 32:17.59 | 3:52.24 | 145334 | 162757
    12 | 36:10.08 | 4:51.65 | 162758 | 184647
    13 | 41:01.73 | 3:55.36 | 184648 | 202308
    14 | 44:57.34 | 4:01.24 | 202309 | 220407
    15 | 48:58.58 | 4:14.31 | 220408 | 239488
    16 | 53:13.14 | 5:17.47 | 239489 | 263310
    17 | 58:30.61 | 3:42.47 | 263311 | 280007
    18 | 62:13.33 | 4:04.71 | 280008 | 298378
    19 | 66:18.29 | 3:36.50 | 298379 | 314628 Range status and errors

    Selected range

    Filename C:UsersDerisDesktoptape514Tape Five - Bossa For A Coup.wav

    Peak level 99.4 %
    Extraction speed 5.1 X
    Range quality 100.0 %
    Test CRC 5900AB2E
    Copy CRC 5900AB2E
    Copy OK

    No errors occurred


    AccurateRip summary

    Track 1 accurately ripped (confidence 4) [02E773E3] (AR v2)
    Track 2 accurately ripped (confidence 4) [18C2C1F5] (AR v2)
    Track 3 accurately ripped (confidence 4) [BB971C25] (AR v2)
    Track 4 accurately ripped (confidence 4) [83CA8B13] (AR v2)
    Track 5 accurately ripped (confidence 4) [B64A1F50] (AR v2)
    Track 6 accurately ripped (confidence 4) [E82C3116] (AR v2)
    Track 7 accurately ripped (confidence 4) [918EE1CB] (AR v2)
    Track 8 accurately ripped (confidence 4) [447E21A0] (AR v2)
    Track 9 accurately ripped (confidence 4) [D6CF8631] (AR v2)
    Track 10 accurately ripped (confidence 4) [F2F50710] (AR v2)
    Track 11 accurately ripped (confidence 4) [1D1653DE] (AR v2)
    Track 12 accurately ripped (confidence 4) [B77F8A2C] (AR v2)
    Track 13 accurately ripped (confidence 4) [85234D04] (AR v2)
    Track 14 accurately ripped (confidence 4) [D1EE4104] (AR v2)
    Track 15 accurately ripped (confidence 4) [28433DD4] (AR v2)
    Track 16 accurately ripped (confidence 4) [56272EBE] (AR v2)
    Track 17 accurately ripped (confidence 4) [ED69C018] (AR v2)
    Track 18 accurately ripped (confidence 4) [228E1F82] (AR v2)
    Track 19 accurately ripped (confidence 4) [ABCC4FE1] (AR v2)

    All tracks accurately ripped

    End of status report

    ---- CUETools DB Plugin V2.1.3

    [CTDB TOCID: Ge8YbFrAlylWqII670_tyVaLrG8-] found, Submit result: Ge8YbFrAlylWqII670_tyVaLrG8- has been confirmed
    [079d833c] (1/1) Accurately ripped ==== Log checksum 1554D37235933096953258771881214D66924CB25A6D0D9CB9C5979BB8D187C5 ====

    DR Log
    foobar2000 1.2.6 / Dynamic Range Meter 1.1.1
    log date: 2015-06-13 09:11:44

    --------------------------------------------------------------------------------
    Analyzed: Tape Five / Bossa For A Coup
    --------------------------------------------------------------------------------

    DR Peak RMS Duration Track
    --------------------------------------------------------------------------------
    DR8 -1.26 dB -10.89 dB 0:21 01-A New Mission
    DR8 -0.10 dB -8.85 dB 3:55 02-Soulsalicious
    DR7 -0.10 dB -8.15 dB 3:52 03-Senorita Bonita
    DR6 -0.10 dB -7.06 dB 4:01 04-Cancun (A tribute to Henry Mancini)
    DR7 -0.10 dB -8.73 dB 4:07 05-A Bossa Love
    DR6 -0.10 dB -7.38 dB 4:05 06-Taxi To Bombay
    DR6 -0.10 dB -7.48 dB 4:02 07-Longitude 54-21
    DR7 -0.05 dB -8.39 dB 3:27 08-Bossa For A Coup
    DR7 -0.10 dB -8.46 dB 3:52 09-Club Of Cigale
    DR9 -4.08 dB -15.51 dB 0:35 10-Metro Bebop Scene
    DR8 -0.10 dB -9.98 dB 3:52 11-The Smell Of The Sidewalk
    DR6 -0.10 dB -7.92 dB 4:52 12-Love On A Rainy Day
    DR7 -0.05 dB -7.95 dB 3:55 13-Femme Libertan
    DR7 -0.05 dB -8.33 dB 4:01 14-Cats Walk Underground
    DR8 -0.05 dB -9.83 dB 4:14 15-Permanent Midnight
    DR8 -0.10 dB -10.36 dB 5:18 16-La Passifleur
    DR8 -0.06 dB -10.10 dB 3:43 17-Bossa For A Cup (Remix)
    DR6 -0.10 dB -7.41 dB 4:05 18-Taxi To Bombay (Feat. Dinesh Mishra)
    DR7 -0.10 dB -8.77 dB 3:37 19-Love On A Rainy Day (Radio Edit)
    --------------------------------------------------------------------------------

    Number of tracks: 19
    Official DR value: DR7

    Samplerate: 44100 Hz
    Channels: 2
    Bits per sample: 16
    Bitrate: 979 kbps
    Codec: FLAC
    ================================================================================

    CUETools Log
    [CUETools log; Date: 13.06.2015 9:11:12; Version: 2.1.5]
    [CTDB TOCID: Ge8YbFrAlylWqII670_tyVaLrG8-] found.
    Track | CTDB Status
    1 | (2/2) Accurately ripped
    2 | (2/2) Accurately ripped
    3 | (2/2) Accurately ripped
    4 | (2/2) Accurately ripped
    5 | (2/2) Accurately ripped
    6 | (2/2) Accurately ripped
    7 | (2/2) Accurately ripped
    8 | (2/2) Accurately ripped
    9 | (2/2) Accurately ripped
    10 | (2/2) Accurately ripped
    11 | (2/2) Accurately ripped
    12 | (2/2) Accurately ripped
    13 | (2/2) Accurately ripped
    14 | (2/2) Accurately ripped
    15 | (2/2) Accurately ripped
    16 | (2/2) Accurately ripped
    17 | (2/2) Accurately ripped
    18 | (2/2) Accurately ripped
    19 | (2/2) Accurately ripped
    [AccurateRip ID: 002d41b2-0286e458-19106313] found.
    Track [ CRC | V2 ] Status
    01 [55f93803|02e773e3] (0+4/4) Accurately ripped
    02 [3245908e|18c2c1f5] (0+4/4) Accurately ripped
    03 [64136daa|bb971c25] (0+4/4) Accurately ripped
    04 [69a8664b|83ca8b13] (0+4/4) Accurately ripped
    05 [f5c37ee1|b64a1f50] (0+4/4) Accurately ripped
    06 [64418c97|e82c3116] (0+4/4) Accurately ripped
    07 [a60d017d|918ee1cb] (0+4/4) Accurately ripped
    08 [581e4b5a|447e21a0] (0+4/4) Accurately ripped
    09 [f42fe22e|d6cf8631] (0+4/4) Accurately ripped
    10 [6463c6e1|f2f50710] (0+4/4) Accurately ripped
    11 [c285227c|1d1653de] (0+4/4) Accurately ripped
    12 [824df32f|b77f8a2c] (0+4/4) Accurately ripped
    13 [a9a53921|85234d04] (0+4/4) Accurately ripped
    14 [fc34a7e8|d1ee4104] (0+4/4) Accurately ripped
    15 [d0461ea0|28433dd4] (0+4/4) Accurately ripped
    16 [b568e195|56272ebe] (0+4/4) Accurately ripped
    17 [ab806653|ed69c018] (0+4/4) Accurately ripped
    18 [4ff3317d|228e1f82] (0+4/4) Accurately ripped
    19 [c71ec095|abcc4fe1] (0+4/4) Accurately ripped

    Track Peak [ CRC32 ] [W/O NULL] [ LOG ]
    -- 99,4 [5900AB2E] [0540B099] CRC32
    01 86,4 [AF717338] [7A459261]
    02 98,8 [78473F96] [898951B9]
    03 98,8 [297C1568] [EA02042B]
    04 98,8 [88B44D5E] [3193D729]
    05 98,8 [8D9CD958] [69A964F9]
    06 98,8 [D1B34AE9] [BBD75980]
    07 98,8 [5C89945D] [ABF578F2]
    08 99,4 [344A1F65] [8B97BE05]
    09 98,8 [DE3F46DE] [61956FFD]
    10 62,4 [314969D8] [6A75C700]
    11 98,8 [418774C7] [365F6E85]
    12 98,8 [D2C73DC2] [6A13BB7F]
    13 99,3 [AAB3EE49] [B1278BFE]
    14 99,4 [245E02CD] [218E4EA4]
    15 99,4 [4C66D280] [4B1A12A2]
    16 98,8 [E4C9AFD0] [7F1D1F27]
    17 99,3 [EB19B299] [34778EE9]
    18 98,8 [BDFD3D5E] [C9492CBF]
    19 98,8 [EBC4D3EC] [8E5F6E6C]


    All thanks go to Boris1

    Tape Five in my blog!

    Download:

    Uploadable: FLAC-part 1 | FLAC-part 2 | mp3



    Free Full Download Tape Five - Bossa For A Coup - form MediaFire.com link RapidShare, Uploaded.to, Zippyshare, FileSonic, turbobit.net, ul.to, ORON, DepositFiles, rapidgator.net, letitbit.net, extabit.com, filefactory.com. Tape Five - Bossa For A Coup - Reloaded (2014) Torrent Download with keygen, crack, serial, 1080p, hdrip, 720p, 2015, 2016

    Malcolm Holcombe - The RCA Sessions (2015) CD + DVD Deluxe Edition


    Malcolm Holcombe - The RCA Sessions (2015) CD + DVD Deluxe Edition
    EAC | FLAC | Image (Cue&Log) ~ 462 Mb (incl 5%) | Mp3 (CBR320) ~ 168 Mb (incl 5%) | Time: 01:07:38
    DVD5 | VIDEO_TS | NTSC 16:9 (720x480), VBR, 29.970 fps | AC3 2.0 @ 192 kbps | 01:24:49 | ~ 3.6 Gb
    Genre: Singer/Songwriter, Folk, Alt-Country, Country-Rock, Americana | Label: Gypsy Eyes Music | Scans...

    Acker Bilk - The Absolutley Essential Collection (2014)


    Acker Bilk - The Absolutley Essential Collection (2014)
    Smooth Jazz, Easy Listening | MP3 320 kbps CBR | 192 min | 440 MB
    Label: Big 3 | Rel: 2014
    60 track survey of one of the UKs most loved musicians, plying his trade throughout the 50s and early 60s. We open with his smash hit, on both sides of the Atlantic, Stranger On The Shore....

    Dean Martin - The Essential Dean Martin 2CD (2014)


    Dean Martin - The Essential Dean Martin 2CD (2014)
    MP3 320 kbps CBR | 106:18 min | 253 MB
    Genre: Jazz, Swing, Easy Listening | Label: Sony Music
    Though he was regarded as one of the best singers of his generation, Dean Martin initially rose to fame as part of a comedy act. In 1946, Martin teamed up with funnyman Jerry Lewis, and the two were soon a sensation, headlining at...

    VA - Nighttime Lovers 13-20: A Fine Collection of Disco Funk Classics of the 80s (2011-2014)


    VA - Nighttime Lovers 13-20: A Fine Collection of Disco Funk Classics of the 80's (2011-2014)
    Disco, Funk, Soul, RnB | MP3 320 kbps CBR | 9 hours | 1.29 MB
    Label: PTG Records | Rel: 2011-2014
    An indispensable thing for stylish and not so "Party" and even "Aftherparty" cognac, whiskey, sex ... that someone like, and "Nighttime Lovers"....

    David Sampson - Chesapeake (2014)


    David Sampson - Chesapeake (2014)
    Contemporary Classical | Summit Records SMT 639 | 2014 | 58:06 | EAC (FLAC, cue, log) | Full Scans | Various File Hosts | 309 MB
    American Brass Quintet, She-e Wu (marimba), James Baker (vibraphone), Steven Beck (piano), Martha Locker (piano), electronics
    “Sampson (b. 1951) belongs to a small group of contemporary composers who have...

    C.p.e. Bach: Wurttemberg Sonatas - Mahan Esfahani (2014)


    C.p.e. Bach: Wurttemberg Sonatas - Mahan Esfahani (2014)
    Classical | MP3 320kbps CBR | 1 CD | 183 MB
    Label: Hyperion | Catalog Number: 67995 | Rls.date: 6th Jan 2014
    Hyperion is delighted to present the debut recording of the wonderful young harpsichordist Mahan Esfahani. He was the first harpsichordist to be named a BBC New Generation Artist or to be awarded a fellowship...

    V.A - 12 Inch Dance: 80s Groove (2014)


    V.A - 12 Inch Dance: 80s Groove (2014)
    Disco, Soul, Funk | MP3 320 kbps | 210:10 min | ~497 MB
    Label: Rhino Records | Tracks: 30 | Rls.date: 2014
    2014 three CD collection of '80s R&B/Soul/Funk remixes. Includes tracks from Sister Sledge, Patrice Rushen, Narada Michael Walden, Rufus & Chaka Khan. Cherrelle, Nu Shooz and many others....

    VA - Best Of Bossa Lounge 2 2CD (2010)


    VA - Best Of Bossa Lounge 2 2CD
    Lo-Fi, Lounge, Jazzy, Bossa | mp3 190.8kbps avg | Playtime: 152:32 min | Size: 208,5 MB
    Label: Chet Records | Tracks: 40 | Rls.date: 2010-12-01
    Finest selection of 40 great Classics of Pop History in a Bossa style! - Excellent versions of world hits by Madonna, Sade, Tears For Fears, INXS, U2, Michael Jackson, Rolling Stones, Rod Stewart, Human...

    Add comment
    Try to express their thoughts correctly and succinctly


Bryan Adams - Discography (1979-2015)
Bryan Adams - Discography 1979-2015 (28 Albums, 52CD+23 Singles) Genre: Rock ||
VA - Masterpieces of Chillout (2015)
Masterpieces of Chillout (2015) Label: Jizoom | Genre: Downtempo, Chillout,
Barrett Baber - The Complete Season 9 Collection (The Voice
Release Name: Barrett Baber - The Complete Season 9 Collection (The Voice
John Williams - Star Wars: The Force Awakens - Original Motion
John Williams - Star Wars: The Force Awakens - Original Motion Picture
1.e4 vs The Sicilian II
Parimarjan Negi, "1.e4 vs The Sicilian II" 2016 | ISBN-10: 1907982574 | 400
Introductory Digital Image Processing: A Remote Sensing
Introductory Digital Image Processing: A Remote Sensing Perspective, 4th
Shackelford's Surgery of the Alimentary Tract, 2 Volume Set, 8e
Shackelford's Surgery of the Alimentary Tract, 2 Volume Set, 8e 2018 | ISBN:
Adobe Premiere Pro CS6 Classroom in a Book
Adobe Premiere Pro CS6 Classroom in a Book Published: 2012-07-19 | ISBN:
NVIDIA GeForce Experience 2.11.2.49 Beta / 2.11.2.46 Final 180422
NVIDIA GeForce Experience 2.11.2.49 Beta / 2.11.2.46 Final 180422 NVIDIA
Wonderware InduSoft Web Studio 8.0 180422
Wonderware InduSoft Web Studio 8.0 180422 Wonderware InduSoft Web Studio 8.0
Zoom Player PRO 10.0.0.100 Final 180422
Zoom Player PRO 10.0.0.100 Final 180422 Zoom Player PRO 10.0.0.100 Final |
MacCleanse 5.0.0 | MacOSX 180422
MacCleanse 5.0.0 | MacOSX 180422 MacCleanse 5.0.0 | MacOSX | 24 MB
Abstract oil painting 1 - 5 UHQ JPEG
Abstract oil painting 1 - 5 UHQ JPEG 5 UHQ JPEG | 5760X3840 | 300 DPI | 28 MB
Juice and Fresh UHQ JPG
Juice and Fresh UHQ JPG 10 UHQ JPG | up to 8000x5323 Pixels | 102 Mb
Girl in abstraction - 6 UHQ JPEG
Girl in abstraction - 6 UHQ JPEG 6 UHQ JPEG | 5915X4212 | 300 DPI | 60 MB
Flyer Psd Template - Farmer Flyer Business
Flyer Psd Template - Farmer Flyer Business PSD | 1275x1875 PIX | fontinfo |

Download Torrents. Fast and Free Torrent Downloads.

Not Store Any File In Server. The Links Are Provided Solely By This Site's Users.

If You Have Any Doubts About Legality Of Content, Feel Free To Contact US.
© 2015 - 2016