Torrent HaHa

Free download any torrents what you need
    New Download Links
    Speed
     kbps
     kbps
     kbps

    John Verity - Tone Hound On The Last Train To Corona (2014)

    Category: Music data: 20-12-2015, 20:25
    Rating:
    (votes: 0)

    John Verity - Tone Hound On The Last Train To Corona (2014)
    EAC Rip | FLAC (Img) + Cue + Log ~ 332 Mb | MP3 CBR320 ~ 122 Mb
    Scans Included (JPG, 600 dpi) | RAR 5% Recovery
    Blues-Rock, Classic Rock | VaVoom Records #888174705927

    John Verity has had a varied and amazing career to date, including support dates with rock luminaries such as Jimi Hendrix, Janis Joplin, The Who, John Mayall’s Bluesbreakers, and Mountain, to recording dates with Ringo Starr, Keith Emerson, Greg Lake, Tim Rose, Zombies, Colin Blunstone, Phoenix, Charlie, and Argent to name but a few... Currently touring to promote his latest album ‘Tone Hound – on the last train to Corona’ a schedule that includes both unplugged and electric shows.
    JV has recorded and toured constantly with his solo projects- always with that distinctive soulful blues edge - and collaborations both in and out of the studio. One of these took place on a Jools Holland tour a while back when John first performed with stunning vocalist Bianca Kinane whilst promoting her debut album.

    In the making of this album I went to great lengths to ensure integrity of the audio. My amps were built by hand, have the best components and use valves. My guitars were designed and built especially for me, are kept in great shape and use vintage formula electronics. Every device in my setup is chosen to have no detrimental effect on the tone of my guitars.

    As ever, I've covered some great songs written by other people - great to sing, great to play, but also included some of my own original stuff. This time I have the pleasure of releasing the very first version of a song that I didn't write - 'Would You' - written by Viv Boucherat & Chris White. The lead vocal on this track is by Bianca Kinane, who I toured with many years ago, and who has remained one of my favourite vocalists. Its a pleasure to be working with you again Bianca - your voice touches my heart - and touches my soul... Which brings me to the other duet by Bianca and yours truly - 'Touch My Soul'. I tried to get the feel of an old Stax record on this one, and to that end we used a real brass section - none of your keyboard nonsense!
    ~ cdbaby


    ***************


    Track List:

    01. I Put a Spell On You [04:42]
    02. Too Much Too Young [05:00]
    03. Double Trouble [04:13]
    04. Nothings Changed [03:51]
    05. Mysterious Ways [04:10]
    06. Help Me [04:04]
    07. Everyday I Have the Blues [05:13]
    08. Would You? [03:23]
    09. Touch My Soul [03:45]
    10. Love Hurts [03:17]

    EAC Log
    Exact Audio Copy V1.0 beta 3 from 29. August 2011

    Отчёт EAC об извлечении, выполненном 29. июня 2014, 15:52

    John Verity / Tone Hound On the Last Train to Corona

    Дисковод: PLEXTOR DVDR PX-880SA Adapter: 1 ID: 0

    Режим чтения : Достоверность
    Использование точного потока : Да
    Отключение кэша аудио : Да
    Использование указателей C2 : Нет

    Коррекция смещения при чтении : 6
    Способность читать области Lead-in и Lead-out : Нет
    Заполнение пропущенных сэмплов тишиной : Да
    Удаление блоков с тишиной в начале и конце : Нет
    При вычислениях CRC использовались нулевые сэмплы : Да
    Интерфейс : Установленный внешний ASPI-интерфейс

    Выходной формат : Пользовательский кодировщик
    Выбранный битрейт : 1024 kBit/s
    Качество : Высокий
    Добавление ID3-тега : Нет
    Утилита сжатия : C:Program FilesExact Audio CopyFLACFLAC.EXE
    Дополнительные параметры : -10 -V -T "ARTIST=%artist%" -T "ALBUM=%albumtitle%" -T "DATE=%year%" -T "GENRE=%genre%" -T "COMMENT=ripped by izia1956" %source% TOC извлечённого CD

    Трек | Старт | Длительность | Начальный сектор | Конечный сектор
    ---------------------------------------------------------------------
    1 | 0:00.00 | 4:41.62 | 0 | 21136
    2 | 4:41.62 | 4:59.56 | 21137 | 43617
    3 | 9:41.43 | 4:12.67 | 43618 | 62584
    4 | 13:54.35 | 3:50.18 | 62585 | 79852
    5 | 17:44.53 | 4:09.10 | 79853 | 98537
    6 | 21:53.63 | 4:03.37 | 98538 | 116799
    7 | 25:57.25 | 5:12.56 | 116800 | 140255
    8 | 31:10.06 | 3:23.00 | 140256 | 155480
    9 | 34:33.06 | 3:44.59 | 155481 | 172339
    10 | 38:17.65 | 3:16.20 | 172340 | 187059 Характеристики диапазона извлечения и сообщения об ошибках

    Выбранный диапазон

    Имя файла D:BitCometJohn Verity - Tone Hound On the Last Train to Corona(2014)John Verity - Tone Hound On the Last Train to Corona.wav

    Пиковый уровень 97.7 %
    Скорость извлечения 7.9 X
    Качество диапазона 100.0 %
    CRC теста 2C744ACC
    CRC копии 2C744ACC
    Копирование... OK

    Ошибок не произошло


    AccurateRip: сводка

    Трек 1 отсутствует в базе данных
    Трек 2 отсутствует в базе данных
    Трек 3 отсутствует в базе данных
    Трек 4 отсутствует в базе данных
    Трек 5 отсутствует в базе данных
    Трек 6 отсутствует в базе данных
    Трек 7 отсутствует в базе данных
    Трек 8 отсутствует в базе данных
    Трек 9 отсутствует в базе данных
    Трек 10 отсутствует в базе данных

    Ни одного трека нет в базе AccurateRip

    Конец отчёта

    ==== Контрольная сумма отчёта C30EAEAE84E7BE83E123DE5821623BDBFF3984308E7899A636F4A5974C18D0A4 ====

    DR Log
    foobar2000 1.2.6 / Dynamic Range Meter 1.1.1
    log date: 2015-05-22 21:34:58

    --------------------------------------------------------------------------------
    Analyzed: John Verity / Tone Hound On the Last Train to Corona
    --------------------------------------------------------------------------------

    DR Peak RMS Duration Track
    --------------------------------------------------------------------------------
    DR11 -0.20 dB -14.09 dB 4:42 01-I Put a Spell On You
    DR10 -0.20 dB -11.83 dB 5:00 02-Too Much Too Young
    DR11 -0.20 dB -12.71 dB 4:13 03-Double Trouble
    DR11 -0.20 dB -11.76 dB 3:50 04-Nothings Changed
    DR11 -0.20 dB -12.02 dB 4:09 05-Mysterious Ways
    DR11 -0.20 dB -12.57 dB 4:03 06-Help Me
    DR11 -0.20 dB -12.50 dB 5:13 07-Everyday I Have the Blues
    DR10 -0.20 dB -11.88 dB 3:23 08-Would You?
    DR10 -0.20 dB -12.72 dB 3:45 09-Touch My Soul
    DR11 -0.20 dB -13.77 dB 3:16 10-Love Hurts
    --------------------------------------------------------------------------------

    Number of tracks: 10
    Official DR value: DR11

    Samplerate: 44100 Hz
    Channels: 2
    Bits per sample: 16
    Bitrate: 991 kbps
    Codec: FLAC
    ================================================================================

    CUETools Log
    [CUETools log; Date: 22.05.2015 21:34:51; Version: 2.1.5]
    [CTDB TOCID: WAjM4hhC3pqqx5_PsY5wbTxTqQ4-] found.
    Track | CTDB Status
    1 | (1/1) Accurately ripped
    2 | (1/1) Accurately ripped
    3 | (1/1) Accurately ripped
    4 | (1/1) Accurately ripped
    5 | (1/1) Accurately ripped
    6 | (1/1) Accurately ripped
    7 | (1/1) Accurately ripped
    8 | (1/1) Accurately ripped
    9 | (1/1) Accurately ripped
    10 | (1/1) Accurately ripped
    [AccurateRip ID: 001071a4-008237ef-9109be0a] found.
    Track [ CRC | V2 ] Status
    01 [33a6c9f1|afe19b60] (0+2/2) Accurately ripped
    02 [3a7a7c4d|b0e2911d] (0+2/2) Accurately ripped
    03 [a08ce4e1|75322297] (0+2/2) Accurately ripped
    04 [c7d9e028|19e1f181] (0+2/2) Accurately ripped
    05 [77af3d47|3fcca53f] (0+2/2) Accurately ripped
    06 [47563aaa|beffb804] (0+2/2) Accurately ripped
    07 [591d506f|33018a45] (0+2/2) Accurately ripped
    08 [e53a85c3|eb580916] (0+2/2) Accurately ripped
    09 [d76c690e|2cd41908] (0+2/2) Accurately ripped
    10 [7b9f3783|d4dbb8d2] (0+2/2) Accurately ripped

    Track Peak [ CRC32 ] [W/O NULL] [ LOG ]
    -- 97,7 [2C744ACC] [04E903ED] CRC32
    01 97,7 [9B2D237A] [ABE3CFAE]
    02 97,7 [6C488F26] [5002C00A]
    03 97,7 [D4ED1B05] [EB4AAEBD]
    04 97,7 [E5CBC81F] [14EA2706]
    05 97,7 [63BAFF11] [5BE34D86]
    06 97,7 [190142BB] [D9DC9CF1]
    07 97,7 [C55CDE81] [91E6BFA2]
    08 97,7 [87B3F2EA] [5FD91D15]
    09 97,7 [B3666441] [ED054F4D]
    10 97,7 [7E8ED7B5] [FFF6E364]


    All thanks go to izia1956
    Download:

    Uploadable: FLAC | mp3

    Hitfile: FLAC | mp3


    Free Full Download John Verity - Tone Hound On The form MediaFire.com link RapidShare, Uploaded.to, Zippyshare, FileSonic, turbobit.net, ul.to, ORON, DepositFiles, rapidgator.net, letitbit.net, extabit.com, filefactory.com. John Verity - Tone Hound On The Last Train To Corona (2014) Torrent Download with keygen, crack, serial, 1080p, hdrip, 720p, 2015, 2016

    Acker Bilk - The Absolutley Essential Collection (2014)


    Acker Bilk - The Absolutley Essential Collection (2014)
    Smooth Jazz, Easy Listening | MP3 320 kbps CBR | 192 min | 440 MB
    Label: Big 3 | Rel: 2014
    60 track survey of one of the UKs most loved musicians, plying his trade throughout the 50s and early 60s. We open with his smash hit, on both sides of the Atlantic, Stranger On The Shore....

    Dean Martin - The Essential Dean Martin 2CD (2014)


    Dean Martin - The Essential Dean Martin 2CD (2014)
    MP3 320 kbps CBR | 106:18 min | 253 MB
    Genre: Jazz, Swing, Easy Listening | Label: Sony Music
    Though he was regarded as one of the best singers of his generation, Dean Martin initially rose to fame as part of a comedy act. In 1946, Martin teamed up with funnyman Jerry Lewis, and the two were soon a sensation, headlining at...

    VA - Nighttime Lovers 13-20: A Fine Collection of Disco Funk Classics of the 80s (2011-2014)


    VA - Nighttime Lovers 13-20: A Fine Collection of Disco Funk Classics of the 80's (2011-2014)
    Disco, Funk, Soul, RnB | MP3 320 kbps CBR | 9 hours | 1.29 MB
    Label: PTG Records | Rel: 2011-2014
    An indispensable thing for stylish and not so "Party" and even "Aftherparty" cognac, whiskey, sex ... that someone like, and "Nighttime Lovers"....

    David Sampson - Chesapeake (2014)


    David Sampson - Chesapeake (2014)
    Contemporary Classical | Summit Records SMT 639 | 2014 | 58:06 | EAC (FLAC, cue, log) | Full Scans | Various File Hosts | 309 MB
    American Brass Quintet, She-e Wu (marimba), James Baker (vibraphone), Steven Beck (piano), Martha Locker (piano), electronics
    “Sampson (b. 1951) belongs to a small group of contemporary composers who have...

    C.p.e. Bach: Wurttemberg Sonatas - Mahan Esfahani (2014)


    C.p.e. Bach: Wurttemberg Sonatas - Mahan Esfahani (2014)
    Classical | MP3 320kbps CBR | 1 CD | 183 MB
    Label: Hyperion | Catalog Number: 67995 | Rls.date: 6th Jan 2014
    Hyperion is delighted to present the debut recording of the wonderful young harpsichordist Mahan Esfahani. He was the first harpsichordist to be named a BBC New Generation Artist or to be awarded a fellowship...

    V.A - 12 Inch Dance: 80s Groove (2014)


    V.A - 12 Inch Dance: 80s Groove (2014)
    Disco, Soul, Funk | MP3 320 kbps | 210:10 min | ~497 MB
    Label: Rhino Records | Tracks: 30 | Rls.date: 2014
    2014 three CD collection of '80s R&B/Soul/Funk remixes. Includes tracks from Sister Sledge, Patrice Rushen, Narada Michael Walden, Rufus & Chaka Khan. Cherrelle, Nu Shooz and many others....

    Johnny Cash - Come Along And Ride This Train (1991) 4CD Box Bear Family BCD 15563


    Johnny Cash - Come Along And Ride This Train (1991) [4CD Box, Bear Family BCD 15563]
    Country | EAC Rip | Flac(Image) + Cue + Log | MP3 CBR 320Kbps | Covers -> 21 Mb
    Bear Family Records | BCD 15563 | ~1456 + 687 Mb | FileSonic, HotFile
    “It's a statement of Johnny Cash's longevity that the eight albums collected here -- each one a concept collection devoted...

    V.A. - The Perfect Guitar Collection: 25 Original Albums (2012) 25 CD Box Set


    V.A. - The Perfect Guitar Collection: 25 Original Albums (2012) [25 CD Box Set]
    EAC Rip | FLAC: Image+Cue+Log | 7.3 GB | MP3 CBR 320 kbps | 3.2 GB | Scans | 459.15 MB | TTime: 20:45:04
    Genre: Jazz, Blues, Rock, Fusion, Instrumental | Label: Columbia/Sony Music | Cat.#: 88725413792
    “This guitar compilation provides you with a knock-out collection of full albums by guitar...

    Add comment
    Try to express their thoughts correctly and succinctly


Bryan Adams - Discography (1979-2015)
Bryan Adams - Discography 1979-2015 (28 Albums, 52CD+23 Singles) Genre: Rock ||
VA - Masterpieces of Chillout (2015)
Masterpieces of Chillout (2015) Label: Jizoom | Genre: Downtempo, Chillout,
Barrett Baber - The Complete Season 9 Collection (The Voice
Release Name: Barrett Baber - The Complete Season 9 Collection (The Voice
John Williams - Star Wars: The Force Awakens - Original Motion
John Williams - Star Wars: The Force Awakens - Original Motion Picture
The Teacher-Friendly Guide to Climate Change
The Teacher-Friendly Guide to Climate Change by Ingrid H. H. Zabel English |
Clinical Photography in Dentistry
Clinical Photography in Dentistry: A New Perspective Quintessence | English |
Business Statistics
Business Statistics by Richard D. De Veaux English | 23 Jan. 2014 | ISBN:
Surgical Design for Dental Reconstruction with Implants
Surgical Design for Dental Reconstruction with Implants: A New Paradigm
Realtime Landscaping Architect 2016 16.07 180119
Realtime Landscaping Architect 2016 16.07 180119 Realtime Landscaping
Cycles And Spots Ibiza Chill WAV MiDi 180119
Cycles And Spots Ibiza Chill WAV MiDi 180119 Cycles And Spots Ibiza Chill
Cycles And Spots 80s Pop WAV MiDi 180119
Cycles And Spots 80s Pop WAV MiDi 180119 Cycles And Spots 80s Pop WAV MiDi |
Cycles And Spots 90s House WAV MiDi 180119
Cycles And Spots 90s House WAV MiDi 180119 Cycles And Spots 90s House WAV
Abstract oil painting 1 - 5 UHQ JPEG
Abstract oil painting 1 - 5 UHQ JPEG 5 UHQ JPEG | 5760X3840 | 300 DPI | 28 MB
Juice and Fresh UHQ JPG
Juice and Fresh UHQ JPG 10 UHQ JPG | up to 8000x5323 Pixels | 102 Mb
Girl in abstraction - 6 UHQ JPEG
Girl in abstraction - 6 UHQ JPEG 6 UHQ JPEG | 5915X4212 | 300 DPI | 60 MB
Flyer Psd Template - Farmer Flyer Business
Flyer Psd Template - Farmer Flyer Business PSD | 1275x1875 PIX | fontinfo |

Download Torrents. Fast and Free Torrent Downloads.

Not Store Any File In Server. The Links Are Provided Solely By This Site's Users.

If You Have Any Doubts About Legality Of Content, Feel Free To Contact US.
© 2015 - 2016