Torrent HaHa

Free download any torrents what you need
    New Download Links
    Speed
     kbps
     kbps
     kbps

    Emmylou Harris & Rodney Crowell - The Traveling Kind (2015) Nonesuch

    Category: Music data: 20-12-2015, 20:25
    Rating:
    (votes: 0)

    Emmylou Harris & Rodney Crowell - The Traveling Kind (2015) {Nonesuch}
    EAC rip (secure mode) | FLAC (tracks)+CUE+LOG -> 251 Mb | MP3 @320 -> 97 Mb
    Full Artwork @ 300 dpi (jpg) -> 27 Mb | 5% repair rar
    © 2015 Nonesuch Records / Warner | 7559-79519-6
    Country / Americana / Contemporary Country / Country-Folk

    The Traveling Kind follows the longtime friends' first duet album, 2013's Old Yellow Moon, which won Best Americana Album at the 56th annual Grammy Awards as well as two awards at the 2013 Americana Music Association Honors & Awards Show, for Album of the Year and Duo/Group of the Year. The album also debuted at #4 on the Billboard's Top Country Albums chart.

    Produced by Grammy Award winner Joe Henry (Billy Bragg, Elvis Costello, Aimee Mann), The Traveling Kind comprises 11 duet tracks, including six new songs written by Harris and Crowell with co-writing by Mary Carr, Cory Chisel, Will Jennings, and Larry Klein. Also featured are new renditions of previous Crowell cuts including "No Memories Hanging Around" as well as new interpretations of Lucinda Williams' "I Just Wanted to See You So Bad" and Amy Allison's "Her Hair Was Red."

    Of the project, Harris comments, "In the words of Willie Nelson, 'The life I love is making music with my friends,' and there's no better friend for me to make music with than Rodney. I can't wait to get out there on the road with him and play the songs from this new record."

    Crowell adds, "Emmy and I wrote six of the eleven songs on The Traveling Kind, which was recorded in a six-day span with our Glory Band, Steuart Smith, and Billy Payne. Joe Henry was at the helm as producer and Justin Neibank did the recording. The experience was pretty much akin to falling off a log."



    Nonesuch INFO

    tracklist:
    01 - The Traveling Kind
    02 - No Memories Hanging Round
    03 - Bring It On Home to Memphis
    04 - You Can't Say We Didn't Try
    05 - The Weight of the World
    06 - Higher Mountains
    07 - I Just Wanted to See You So Bad
    08 - Just Pleasing You
    09 - If You Lived Here You'd Be Home Now
    10 - Her Hair Was Red
    11 - Le danse de la joie

    EAC log
    Exact Audio Copy V1.0 beta 4 from 7. December 2014

    EAC extraction logfile from 25. July 2015, 17:36

    Emmylou Harris & Rodney Crowell / The Traveling Kind

    Used drive : TSSTcorpCDDVDW SN-208FB Adapter: 1 ID: 0

    Read mode : Secure
    Utilize accurate stream : Yes
    Defeat audio cache : Yes
    Make use of C2 pointers : No

    Read offset correction : 6
    Overread into Lead-In and Lead-Out : No
    Fill up missing offset samples with silence : Yes
    Delete leading and trailing silent blocks : No
    Null samples used in CRC calculations : Yes
    Used interface : Native Win32 interface for Win NT & 2000
    Gap handling : Appended to previous track

    Used output format : User Defined Encoder
    Selected bitrate : 1024 kBit/s
    Quality : High
    Add ID3 tag : No
    Command line compressor : C:Program Files (x86)Kodeki za GlasboFLACflac.exe
    Additional command line options : -8 -V -T "ARTIST=%artist%" -T "TITLE=%title%" -T "ALBUM=%albumtitle%" -T "DATE=%year%" -T "TRACKNUMBER=%tracknr%" -T "TOTALTRACKS=%numtracks%" -T "GENRE=%genre%" -T "ALBUMARTIST=%albumartist%" -T "ALBUM ARTIST=%albumartist%" -T "COMMENT=EAC Secure Mode, Test & Copy, AccurateRip, FLAC -8" %source% TOC of the extracted CD

    Track | Start | Length | Start sector | End sector
    ---------------------------------------------------------
    1 | 0:00.00 | 3:40.45 | 0 | 16544
    2 | 3:40.45 | 3:41.26 | 16545 | 33145
    3 | 7:21.71 | 3:37.35 | 33146 | 49455
    4 | 10:59.31 | 3:26.59 | 49456 | 64964
    5 | 14:26.15 | 4:34.33 | 64965 | 85547
    6 | 19:00.48 | 4:11.54 | 85548 | 104426
    7 | 23:12.27 | 3:02.69 | 104427 | 118145
    8 | 26:15.21 | 4:21.14 | 118146 | 137734
    9 | 30:36.35 | 2:59.46 | 137735 | 151205
    10 | 33:36.06 | 2:42.41 | 151206 | 163396
    11 | 36:18.47 | 4:22.26 | 163397 | 183072 Track 1

    Filename M:Emmylou Harris & Rodney Crowell - The Traveling Kind (2015) [FLAC] {Nonesuch 7559-79519-6}1 - The Traveling Kind.wav

    Pre-gap length 0:00:02.00

    Peak level 98.2 %
    Extraction speed 2.0 X
    Track quality 100.0 %
    Test CRC 35FB4C3B
    Copy CRC 35FB4C3B
    Accurately ripped (confidence 16) [0222CAA1] (AR v2)
    Copy OK

    Track 2

    Filename M:Emmylou Harris & Rodney Crowell - The Traveling Kind (2015) [FLAC] {Nonesuch 7559-79519-6}2 - No Memories Hanging Round.wav

    Peak level 98.5 %
    Extraction speed 2.2 X
    Track quality 100.0 %
    Test CRC F6DFEC75
    Copy CRC F6DFEC75
    Accurately ripped (confidence 15) [7886F2D1] (AR v2)
    Copy OK

    Track 3

    Filename M:Emmylou Harris & Rodney Crowell - The Traveling Kind (2015) [FLAC] {Nonesuch 7559-79519-6}3 - Bring It On Home to Memphis.wav

    Peak level 99.2 %
    Extraction speed 1.9 X
    Track quality 99.9 %
    Test CRC 1ABD533F
    Copy CRC 1ABD533F
    Accurately ripped (confidence 15) [A856467C] (AR v2)
    Copy OK

    Track 4

    Filename M:Emmylou Harris & Rodney Crowell - The Traveling Kind (2015) [FLAC] {Nonesuch 7559-79519-6}4 - You Can't Say We Didn't Try.wav

    Peak level 98.6 %
    Extraction speed 2.0 X
    Track quality 99.9 %
    Test CRC E330A55F
    Copy CRC E330A55F
    Accurately ripped (confidence 16) [DDE2F072] (AR v2)
    Copy OK

    Track 5

    Filename M:Emmylou Harris & Rodney Crowell - The Traveling Kind (2015) [FLAC] {Nonesuch 7559-79519-6}5 - The Weight of the World.wav

    Peak level 100.0 %
    Extraction speed 2.8 X
    Track quality 100.0 %
    Test CRC DF662264
    Copy CRC DF662264
    Accurately ripped (confidence 15) [33EA93EE] (AR v2)
    Copy OK

    Track 6

    Filename M:Emmylou Harris & Rodney Crowell - The Traveling Kind (2015) [FLAC] {Nonesuch 7559-79519-6}6 - Higher Mountains.wav

    Peak level 99.9 %
    Extraction speed 3.0 X
    Track quality 100.0 %
    Test CRC C10CD563
    Copy CRC C10CD563
    Accurately ripped (confidence 16) [4A7ECE7F] (AR v2)
    Copy OK

    Track 7

    Filename M:Emmylou Harris & Rodney Crowell - The Traveling Kind (2015) [FLAC] {Nonesuch 7559-79519-6}7 - I Just Wanted to See You So Bad.wav

    Peak level 100.0 %
    Extraction speed 2.3 X
    Track quality 99.9 %
    Test CRC 0B101D60
    Copy CRC 0B101D60
    Accurately ripped (confidence 16) [F219073E] (AR v2)
    Copy OK

    Track 8

    Filename M:Emmylou Harris & Rodney Crowell - The Traveling Kind (2015) [FLAC] {Nonesuch 7559-79519-6}8 - Just Pleasing You.wav

    Peak level 98.1 %
    Extraction speed 3.3 X
    Track quality 100.0 %
    Test CRC 6C470423
    Copy CRC 6C470423
    Accurately ripped (confidence 16) [FBCBBA75] (AR v2)
    Copy OK

    Track 9

    Filename M:Emmylou Harris & Rodney Crowell - The Traveling Kind (2015) [FLAC] {Nonesuch 7559-79519-6}9 - If You Lived Here You'd Be Home Now.wav

    Peak level 98.6 %
    Extraction speed 2.4 X
    Track quality 99.9 %
    Test CRC 98E798B0
    Copy CRC 98E798B0
    Accurately ripped (confidence 16) [43D897EC] (AR v2)
    Copy OK

    Track 10

    Filename M:Emmylou Harris & Rodney Crowell - The Traveling Kind (2015) [FLAC] {Nonesuch 7559-79519-6}10 - Her Hair Was Red.wav

    Peak level 97.8 %
    Extraction speed 3.2 X
    Track quality 100.0 %
    Test CRC 12F36488
    Copy CRC 12F36488
    Accurately ripped (confidence 16) [3F73DC3F] (AR v2)
    Copy OK

    Track 11

    Filename M:Emmylou Harris & Rodney Crowell - The Traveling Kind (2015) [FLAC] {Nonesuch 7559-79519-6}11 - Le danse de la joie.wav

    Peak level 99.9 %
    Extraction speed 3.6 X
    Track quality 100.0 %
    Test CRC F397A3E2
    Copy CRC F397A3E2
    Accurately ripped (confidence 15) [71BCCBEF] (AR v2)
    Copy OK All tracks accurately ripped

    No errors occurred

    End of status report

    ---- CUETools DB Plugin V2.1.4

    [CTDB TOCID: 4HaTTZFtOdiXo1l9o2ULJlEmjZg-] found
    Submit result: 4HaTTZFtOdiXo1l9o2ULJlEmjZg- has been confirmed
    Track | CTDB Status
    1 | (50/50) Accurately ripped
    2 | (50/50) Accurately ripped
    3 | (50/50) Accurately ripped
    4 | (50/50) Accurately ripped
    5 | (50/50) Accurately ripped
    6 | (50/50) Accurately ripped
    7 | (50/50) Accurately ripped
    8 | (50/50) Accurately ripped
    9 | (50/50) Accurately ripped
    10 | (50/50) Accurately ripped
    11 | (50/50) Accurately ripped ==== Log checksum 8113CEF791C2EBFEE006A5D5F48BB69465189A39F9C4CC663146F11BA937C70F ====





    All thanks goes to the original releaser!




    Free Full Download Emmylou Harris & Rodney Crowell - form MediaFire.com link RapidShare, Uploaded.to, Zippyshare, FileSonic, turbobit.net, ul.to, ORON, DepositFiles, rapidgator.net, letitbit.net, extabit.com, filefactory.com. Emmylou Harris & Rodney Crowell - The Traveling Kind (2015) Nonesuch Torrent Download with keygen, crack, serial, 1080p, hdrip, 720p, 2015, 2016

    Cory Morrow - The Good Fight (2015)


    Cory Morrow - The Good Fight (2015)
    Country | MP3 CBR 320 kbps | 00:57:45 | 136 MB
    Label: Write On Records | Release Year: 2015
    After finding himself in 2010's release of Brand New Me, Cory Morrow spent the next five years searching for the meaning of life. Becoming one with his wife brought them two boys before welcoming twin boys in the fall of 2014. Raising four boys...

    Various Artists - ZYX Italo Disco New Generation Bootmix 3 (2015)


    V. A. - ZYX Italo Disco New Generation Bootmix 3 (2015)
    Label: ZYX Music | MP3 320 kbps CBR | 50:27 min | 116 mb
    Italo-Disco, Euro Dance
    50 minutes non-stop new generation Italo Disco in a boot mix compiled by the legendary Mario Aldini!...

    Johnny Dowd - Thats Your Wife on the Back of My Horse (2015)


    Johnny Dowd - That's Your Wife on the Back of My Horse
    Alt-Country, Americana | MP3 CBR 320 kbps | 45:26 min | 112 MB + 5% Recovery
    Label: Mother Jinx Records | Tracks: 14 | Rls.date: 2015
    Time to dig out the bunting and start baking those celebratory cakes, the master of the absurd Ithaca's brightest, exploratory mind, Johnny Dowd, returns with a new album,...

    Malcolm Holcombe - The RCA Sessions (2015) CD + DVD Deluxe Edition


    Malcolm Holcombe - The RCA Sessions (2015) CD + DVD Deluxe Edition
    EAC | FLAC | Image (Cue&Log) ~ 462 Mb (incl 5%) | Mp3 (CBR320) ~ 168 Mb (incl 5%) | Time: 01:07:38
    DVD5 | VIDEO_TS | NTSC 16:9 (720x480), VBR, 29.970 fps | AC3 2.0 @ 192 kbps | 01:24:49 | ~ 3.6 Gb
    Genre: Singer/Songwriter, Folk, Alt-Country, Country-Rock, Americana | Label: Gypsy Eyes Music | Scans...

    Richard Bennett - Contrary Cocktail (2015)


    Richard Bennett - Contrary Cocktail (2015)
    EAC | Flac(Image) + Cue + Log & MP3 CBR 320Kbps
    Moderne Shellac, MSCD 105 | ~ 254 or 102 Mb | Scans(png) -> 60 Mb
    Instrumental Rock / Pop / Easy Listening
    “A hypnotic blend of rhythms, landscapes, tones, colors, styles and moods, with melodies leading the way to certain places that only songs without words can...

    Steve Cobby - Everliving (2015)


    Steve Cobby - Everliving (2015)
    MP3 CBR 320 kbps | Tracks: 14 | 95:12 min | 218 Mb
    Style: Electronic, Downtempo, Broken Beat, Ambient, Balearic, Nu-Jazz, Nu-Soul | Label: Declasse
    Steve Cobby is a British producer, musician, composer, and DJ, based in Kingston-upon-Hull, Yorkshire.
    After disbanding his first commercially released band Ashley & Jackson on Big Life...

    Anita Harris - The Essential Anita Harris (2003)


    Anita Harris - The Essential Anita Harris (2003)
    Flac individual tracks | No log + No cue | MP3 CBR 320 Kbps
    416 MB Flac or 160 MB MP3 | 71 Mins | Covers
    Genre : Easy, Swing, Jazz...

    Tam Harrow - Incredible Idiot (2015)


    Tam Harrow - Incredible Idiot (2015)
    MP3 CBR 320 kbps | Tracks: 12 | 54:17 min | 124 Mb
    Style: Electronic, Italo Disco | Label: Chieregato Hooker
    Tam Harrow is a musical project by Tom Hooker and Miki Chieregato. The Tam Harrow character is a satire of Italo Disco artists like Den Harrow, whom Hooker provided vocals for in the 1980s....

    Add comment
    Try to express their thoughts correctly and succinctly


Bryan Adams - Discography (1979-2015)
Bryan Adams - Discography 1979-2015 (28 Albums, 52CD+23 Singles) Genre: Rock ||
VA - Masterpieces of Chillout (2015)
Masterpieces of Chillout (2015) Label: Jizoom | Genre: Downtempo, Chillout,
Barrett Baber - The Complete Season 9 Collection (The Voice
Release Name: Barrett Baber - The Complete Season 9 Collection (The Voice
John Williams - Star Wars: The Force Awakens - Original Motion
John Williams - Star Wars: The Force Awakens - Original Motion Picture
The Teacher-Friendly Guide to Climate Change
The Teacher-Friendly Guide to Climate Change by Ingrid H. H. Zabel English |
Clinical Photography in Dentistry
Clinical Photography in Dentistry: A New Perspective Quintessence | English |
Business Statistics
Business Statistics by Richard D. De Veaux English | 23 Jan. 2014 | ISBN:
Surgical Design for Dental Reconstruction with Implants
Surgical Design for Dental Reconstruction with Implants: A New Paradigm
Realtime Landscaping Architect 2016 16.07 180119
Realtime Landscaping Architect 2016 16.07 180119 Realtime Landscaping
Cycles And Spots Ibiza Chill WAV MiDi 180119
Cycles And Spots Ibiza Chill WAV MiDi 180119 Cycles And Spots Ibiza Chill
Cycles And Spots 80s Pop WAV MiDi 180119
Cycles And Spots 80s Pop WAV MiDi 180119 Cycles And Spots 80s Pop WAV MiDi |
Cycles And Spots 90s House WAV MiDi 180119
Cycles And Spots 90s House WAV MiDi 180119 Cycles And Spots 90s House WAV
Abstract oil painting 1 - 5 UHQ JPEG
Abstract oil painting 1 - 5 UHQ JPEG 5 UHQ JPEG | 5760X3840 | 300 DPI | 28 MB
Juice and Fresh UHQ JPG
Juice and Fresh UHQ JPG 10 UHQ JPG | up to 8000x5323 Pixels | 102 Mb
Girl in abstraction - 6 UHQ JPEG
Girl in abstraction - 6 UHQ JPEG 6 UHQ JPEG | 5915X4212 | 300 DPI | 60 MB
Flyer Psd Template - Farmer Flyer Business
Flyer Psd Template - Farmer Flyer Business PSD | 1275x1875 PIX | fontinfo |

Download Torrents. Fast and Free Torrent Downloads.

Not Store Any File In Server. The Links Are Provided Solely By This Site's Users.

If You Have Any Doubts About Legality Of Content, Feel Free To Contact US.
© 2015 - 2016