Torrent HaHa

Free download any torrents what you need
    New Download Links
    Speed
     kbps
     kbps
     kbps

    Ordinary World (2016)

    Category: Video data: 10-10-2017, 11:45
    Rating:
    (votes: 0)
    Ordinary World (2016)

    Ordinary World (2016)
    BDRip | MKV | 720x406 | [email protected] kb/s | English [email protected] kb/s | 2 channels | 1 h 27 min | 501 MB
    BRRip | AVI | 720x400 | [email protected] kb/s | English [email protected] kb/s | 6 channels | 1 h 27 min | 1.37 GB
    BDRip 720p | MKV | 1280x720 | [email protected] kb/s | English [email protected] kb/s | 6 channels | 1 h 27 min | 4.37 GB
    BDRip 1080p | MKV | 1920x1080 | [email protected] kb/s | English [email protected] kb/s | 6 channels | 1 h 27 min | 6.55 GB
    Genre: Comedy, Drama, Music

    An aging punk rocker copes with life after rock.

    More on IMDB:
    http://www.imdb.com/title/tt4189494/


    BDRip MediaInfo
    General
    Unique ID : 226964894995282933510076343802080002629 (0xAABFD9484F57BE018525C6A4FC200245)
    Complete name : J:\Ordinary.World.2016.BDRip.x264-ROVERS.mkv
    Format : Matroska
    Format version : Version 4 / Version 2
    File size : 502 MiB
    Duration : 1 h 27 min
    Overall bit rate : 806 kb/s
    Encoded date : UTC 2016-12-01 06:45:58
    Writing application : mkvmerge v8.3.0 ('Over the Horizon') 64bit
    Writing library : libebml v1.3.1 + libmatroska v1.4.2

    Video
    ID : 1
    Format : AVC
    Format/Info : Advanced Video Codec
    Format profile : [email protected]
    Format settings, CABAC : Yes
    Format settings, ReFrames : 5 frames
    Codec ID : V_MPEG4/ISO/AVC
    Duration : 1 h 27 min
    Bit rate : 696 kb/s
    Width : 720 pixels
    Height : 406 pixels
    Display aspect ratio : 16:9
    Frame rate mode : Constant
    Frame rate : 23.976 FPS
    Color space : YUV
    Chroma subsampling : 4:2:0
    Bit depth : 8 bits
    Scan type : Progressive
    Bits/(Pixel*Frame) : 0.099
    Stream size : 434 MiB (86%)
    Title : X264
    Writing library : x264 core 148 r2705 3f5ed56
    Encoding settings : cabac=1 / ref=5 / deblock=1:-2:-2 / analyse=0x3:0x113 / me=umh / subme=8 / psy=1 / psy_rd=0.90:0.00 / mixed_ref=1 / me_range=16 / chroma_me=1 / trellis=1 / 8x8dct=1 / cqm=0 / deadzone=21,11 / fast_pskip=1 / chroma_qp_offset=-2 / threads=13 / lookahead_threads=2 / sliced_threads=0 / nr=0 / decimate=1 / interlaced=0 / bluray_compat=0 / constrained_intra=0 / bframes=3 / b_pyramid=2 / b_adapt=2 / b_bias=0 / direct=3 / weightb=1 / open_gop=0 / weightp=2 / keyint=250 / keyint_min=23 / scenecut=40 / intra_refresh=0 / rc_lookahead=50 / rc=crf / mbtree=1 / crf=19.0 / qcomp=0.60 / qpmin=0 / qpmax=69 / qpstep=4 / ip_ratio=1.40 / aq=1:1.00
    Language : English
    Default : Yes
    Forced : No
    Color range : Limited
    Matrix coefficients : BT.709

    Audio
    ID : 2
    Format : AAC
    Format/Info : Advanced Audio Codec
    Format profile : LC
    Codec ID : A_AAC
    Duration : 1 h 27 min
    Bit rate : 107 kb/s
    Channel(s) : 2 channels
    Channel positions : Front: L R
    Sampling rate : 48.0 kHz
    Frame rate : 46.875 FPS (1024 spf)
    Compression mode : Lossy
    Stream size : 66.8 MiB (13%)
    Language : English
    Default : Yes
    Forced : No

    Menu
    00:00:00.000 : en:00:00:00.000
    00:07:59.813 : en:00:07:59.813
    00:13:48.244 : en:00:13:48.244
    00:22:28.681 : en:00:22:28.681
    00:30:15.272 : en:00:30:15.272
    00:36:14.631 : en:00:36:14.631
    00:43:24.477 : en:00:43:24.477
    00:50:16.263 : en:00:50:16.263
    00:59:36.740 : en:00:59:36.740
    01:04:43.671 : en:01:04:43.671
    01:10:19.590 : en:01:10:19.590
    01:17:15.297 : en:01:17:15.297
    01:22:12.261 : en:01:22:12.261

    BRRip MediaInfo
    General
    Complete name : J:\Torrents\Ordinary.World.2016.BRRip.XviD.AC3-EVO\Ordinary.World.2016.BRRip.XviD.AC3-EVO.avi
    Format : AVI
    Format/Info : Audio Video Interleave
    File size : 1.38 GiB
    Duration : 1 h 27 min
    Overall bit rate : 2 268 kb/s
    Writing library : VirtualDub build 32593/release

    Video
    ID : 0
    Format : MPEG-4 Visual
    Format profile : Advanced [email protected]
    Format settings, BVOP : 2
    Format settings, QPel : No
    Format settings, GMC : No warppoints
    Format settings, Matrix : Default (H.263)
    Muxing mode : Packed bitstream
    Codec ID : XVID
    Codec ID/Hint : XviD
    Duration : 1 h 27 min
    Bit rate : 1 811 kb/s
    Width : 720 pixels
    Height : 400 pixels
    Display aspect ratio : 16:9
    Frame rate : 23.976 (24000/1001) FPS
    Color space : YUV
    Chroma subsampling : 4:2:0
    Bit depth : 8 bits
    Scan type : Progressive
    Compression mode : Lossy
    Bits/(Pixel*Frame) : 0.262
    Stream size : 1.10 GiB (80%)
    Writing library : XviD 66

    Audio
    ID : 1
    Format : AC-3
    Format/Info : Audio Coding 3
    Mode extension : CM (complete main)
    Format settings, Endianness : Big
    Codec ID : 2000
    Duration : 1 h 27 min
    Bit rate mode : Constant
    Bit rate : 448 kb/s
    Channel(s) : 6 channels
    Channel positions : Front: L C R, Side: L R, LFE
    Sampling rate : 48.0 kHz
    Frame rate : 31.250 FPS (1536 spf)
    Bit depth : 16 bits
    Compression mode : Lossy
    Stream size : 279 MiB (20%)
    Alignment : Aligned on interleaves
    Interleave, duration : 42 ms (1.00 video frame)
    Interleave, preload duration : 512 ms

    BDRip 720p MediaInfo
    General
    Unique ID : 178015709064222685157773509747931236846 (0x85EC941655DD481CAB67B36BB43249EE)
    Complete name : J:\Ordinary.World.2016.720p.BluRay.x264-ROVERS.mkv
    Format : Matroska
    Format version : Version 4 / Version 2
    File size : 4.37 GiB
    Duration : 1 h 27 min
    Overall bit rate : 7 186 kb/s
    Encoded date : UTC 2016-12-01 06:23:23
    Writing application : mkvmerge v8.3.0 ('Over the Horizon') 64bit
    Writing library : libebml v1.3.1 + libmatroska v1.4.2

    Video
    ID : 1
    Format : AVC
    Format/Info : Advanced Video Codec
    Format profile : [email protected]
    Format settings, CABAC : Yes
    Format settings, ReFrames : 5 frames
    Codec ID : V_MPEG4/ISO/AVC
    Duration : 1 h 27 min
    Bit rate : 5 676 kb/s
    Width : 1 280 pixels
    Height : 720 pixels
    Display aspect ratio : 16:9
    Frame rate mode : Constant
    Frame rate : 23.976 FPS
    Color space : YUV
    Chroma subsampling : 4:2:0
    Bit depth : 8 bits
    Scan type : Progressive
    Bits/(Pixel*Frame) : 0.257
    Stream size : 3.45 GiB (79%)
    Writing library : x264 core 148 r2705 3f5ed56
    Encoding settings : cabac=1 / ref=5 / deblock=1:0:0 / analyse=0x3:0x133 / me=umh / subme=7 / psy=1 / psy_rd=1.00:0.00 / mixed_ref=1 / me_range=16 / chroma_me=1 / trellis=1 / 8x8dct=1 / cqm=0 / deadzone=21,11 / fast_pskip=0 / chroma_qp_offset=-2 / threads=22 / lookahead_threads=3 / sliced_threads=0 / nr=0 / decimate=1 / interlaced=0 / bluray_compat=0 / constrained_intra=0 / bframes=3 / b_pyramid=2 / b_adapt=1 / b_bias=0 / direct=1 / weightb=1 / open_gop=0 / weightp=2 / keyint=250 / keyint_min=23 / scenecut=40 / intra_refresh=0 / rc_lookahead=40 / rc=2pass / mbtree=1 / bitrate=5676 / ratetol=1.0 / qcomp=0.60 / qpmin=0 / qpmax=69 / qpstep=4 / cplxblur=20.0 / qblur=0.5 / ip_ratio=1.40 / aq=1:1.00
    Language : English
    Default : Yes
    Forced : No

    Audio
    ID : 2
    Format : DTS
    Format/Info : Digital Theater Systems
    Mode : 16
    Format settings, Endianness : Big
    Codec ID : A_DTS
    Duration : 1 h 27 min
    Bit rate mode : Constant
    Bit rate : 1 509 kb/s
    Channel(s) : 6 channels
    Channel positions : Front: L C R, Side: L R, LFE
    Sampling rate : 48.0 kHz
    Frame rate : 93.750 FPS (512 spf)
    Bit depth : 24 bits
    Compression mode : Lossy
    Stream size : 940 MiB (21%)
    Language : English
    Default : Yes
    Forced : No

    Menu
    00:00:00.000 : en:00:00:00.000
    00:07:59.813 : en:00:07:59.813
    00:13:48.244 : en:00:13:48.244
    00:22:28.681 : en:00:22:28.681
    00:30:15.272 : en:00:30:15.272
    00:36:14.631 : en:00:36:14.631
    00:43:24.477 : en:00:43:24.477
    00:50:16.263 : en:00:50:16.263
    00:59:36.740 : en:00:59:36.740
    01:04:43.671 : en:01:04:43.671
    01:10:19.590 : en:01:10:19.590
    01:17:15.297 : en:01:17:15.297
    01:22:12.261 : en:01:22:12.261

    BDRip 1080p MediaInfo
    General
    Unique ID : 237822276864947005742680129767546996815 (0xB2EAE789C01E9B3ABD503512A3C6C84F)
    Complete name : J:\Ordinary.World.2016.1080p.BluRay.x264-ROVERS.mkv
    Format : Matroska
    Format version : Version 4 / Version 2
    File size : 6.56 GiB
    Duration : 1 h 27 min
    Overall bit rate : 10.8 Mb/s
    Encoded date : UTC 2016-12-01 08:32:02
    Writing application : mkvmerge v8.3.0 ('Over the Horizon') 64bit
    Writing library : libebml v1.3.1 + libmatroska v1.4.2

    Video
    ID : 1
    Format : AVC
    Format/Info : Advanced Video Codec
    Format profile : [email protected]
    Format settings, CABAC : Yes
    Format settings, ReFrames : 4 frames
    Codec ID : V_MPEG4/ISO/AVC
    Duration : 1 h 27 min
    Bit rate : 9 273 kb/s
    Width : 1 920 pixels
    Height : 1 080 pixels
    Display aspect ratio : 16:9
    Frame rate mode : Constant
    Frame rate : 23.976 FPS
    Color space : YUV
    Chroma subsampling : 4:2:0
    Bit depth : 8 bits
    Scan type : Progressive
    Bits/(Pixel*Frame) : 0.187
    Stream size : 5.64 GiB (86%)
    Writing library : x264 core 148 r2705 3f5ed56
    Encoding settings : cabac=1 / ref=4 / deblock=1:0:0 / analyse=0x3:0x133 / me=umh / subme=7 / psy=1 / psy_rd=1.00:0.00 / mixed_ref=1 / me_range=16 / chroma_me=1 / trellis=1 / 8x8dct=1 / cqm=0 / deadzone=21,11 / fast_pskip=0 / chroma_qp_offset=-2 / threads=24 / lookahead_threads=4 / sliced_threads=0 / nr=0 / decimate=1 / interlaced=0 / bluray_compat=0 / constrained_intra=0 / bframes=3 / b_pyramid=2 / b_adapt=1 / b_bias=0 / direct=1 / weightb=1 / open_gop=0 / weightp=2 / keyint=250 / keyint_min=23 / scenecut=40 / intra_refresh=0 / rc_lookahead=40 / rc=2pass / mbtree=1 / bitrate=9273 / ratetol=1.0 / qcomp=0.60 / qpmin=0 / qpmax=69 / qpstep=4 / cplxblur=20.0 / qblur=0.5 / ip_ratio=1.40 / aq=1:1.00
    Language : English
    Default : Yes
    Forced : No

    Audio
    ID : 2
    Format : DTS
    Format/Info : Digital Theater Systems
    Mode : 16
    Format settings, Endianness : Big
    Codec ID : A_DTS
    Duration : 1 h 27 min
    Bit rate mode : Constant
    Bit rate : 1 509 kb/s
    Channel(s) : 6 channels
    Channel positions : Front: L C R, Side: L R, LFE
    Sampling rate : 48.0 kHz
    Frame rate : 93.750 FPS (512 spf)
    Bit depth : 24 bits
    Compression mode : Lossy
    Stream size : 940 MiB (14%)
    Language : English
    Default : Yes
    Forced : No

    Menu
    00:00:00.000 : en:00:00:00.000
    00:07:59.813 : en:00:07:59.813
    00:13:48.244 : en:00:13:48.244
    00:22:28.681 : en:00:22:28.681
    00:30:15.272 : en:00:30:15.272
    00:36:14.631 : en:00:36:14.631
    00:43:24.477 : en:00:43:24.477
    00:50:16.263 : en:00:50:16.263
    00:59:36.740 : en:00:59:36.740
    01:04:43.671 : en:01:04:43.671
    01:10:19.590 : en:01:10:19.590
    01:17:15.297 : en:01:17:15.297
    01:22:12.261 : en:01:22:12.261

    BDRip Screenshots


    BRRip Screenshots


    BDRip 720p Screenshots


    BDRip 1080p Screenshots


    Download links
    BDRip
    Single Link
    
    http://nitroflare.com/view/7AC8122E46B3AFB/Ordinary.World.2016.BDRip.x264-ROVERS.mkv
    


    BRRip
    Single Link
    
    http://nitroflare.com/view/31044F134CCA925/Ordinary.World.2016.BRRip.XviD.AC3-EVO.avi
    


    500 MB Links
    
    http://nitroflare.com/view/5BDFAC67A3B80CC/Ordinary.World.2016.BRRip.XviD.AC3-EVO.part1.rar
    http://nitroflare.com/view/F6EEB9BBF12FBF3/Ordinary.World.2016.BRRip.XviD.AC3-EVO.part2.rar
    http://nitroflare.com/view/B8FDF26AE4F943D/Ordinary.World.2016.BRRip.XviD.AC3-EVO.part3.rar
    

    
    http://uploaded.net/file/0aqop8a0/Ordinary.World.2016.BRRip.XviD.AC3-EVO.part1.rar
    http://uploaded.net/file/8999j4b6/Ordinary.World.2016.BRRip.XviD.AC3-EVO.part2.rar
    http://uploaded.net/file/m0qk2uqa/Ordinary.World.2016.BRRip.XviD.AC3-EVO.part3.rar
    

    
    https://rapidgator.net/file/b5f06e4e75486b7100b42b8fa7651152/Ordinary.World.2016.BRRip.XviD.AC3-EVO.part1.rar.html
    https://rapidgator.net/file/bb52a141b47cf856d5f3350c51fd5017/Ordinary.World.2016.BRRip.XviD.AC3-EVO.part2.rar.html
    https://rapidgator.net/file/4fa9d87f6fdc156d60c0b3e8839a1bd9/Ordinary.World.2016.BRRip.XviD.AC3-EVO.part3.rar.html
    


    BDRip 720p
    Single Link
    
    http://nitroflare.com/view/95E267F8916C24F/Ordinary.World.2016.720p.BluRay.x264-ROVERS.mkv
    


    900 MB Links
    
    http://nitroflare.com/view/83AC7551061A08C/Ordinary.World.2016.720p.BluRay.x264-ROVERS.part1.rar
    http://nitroflare.com/view/AB2731639672439/Ordinary.World.2016.720p.BluRay.x264-ROVERS.part2.rar
    http://nitroflare.com/view/8443CCE4DAEF490/Ordinary.World.2016.720p.BluRay.x264-ROVERS.part3.rar
    http://nitroflare.com/view/18B25DA09FAD5EB/Ordinary.World.2016.720p.BluRay.x264-ROVERS.part4.rar
    http://nitroflare.com/view/140DACA749E70A1/Ordinary.World.2016.720p.BluRay.x264-ROVERS.part5.rar
    

    
    http://uploaded.net/file/vjqvh31w/Ordinary.World.2016.720p.BluRay.x264-ROVERS.part1.rar
    http://uploaded.net/file/qgdbj66y/Ordinary.World.2016.720p.BluRay.x264-ROVERS.part2.rar
    http://uploaded.net/file/atqeos6f/Ordinary.World.2016.720p.BluRay.x264-ROVERS.part3.rar
    http://uploaded.net/file/g5uv09wd/Ordinary.World.2016.720p.BluRay.x264-ROVERS.part4.rar
    http://uploaded.net/file/190e44wy/Ordinary.World.2016.720p.BluRay.x264-ROVERS.part5.rar
    

    
    https://rapidgator.net/file/885bdbc148911b46f53c2e02c2c68dd1/Ordinary.World.2016.720p.BluRay.x264-ROVERS.part1.rar.html
    https://rapidgator.net/file/8a5bbd8a29dd19b5054fdd1b8a1c9874/Ordinary.World.2016.720p.BluRay.x264-ROVERS.part2.rar.html
    https://rapidgator.net/file/476df1a1e21f00a4d64821406f898e77/Ordinary.World.2016.720p.BluRay.x264-ROVERS.part3.rar.html
    https://rapidgator.net/file/b9897dfdbf0269a2a30f51fbec5f4f73/Ordinary.World.2016.720p.BluRay.x264-ROVERS.part4.rar.html
    https://rapidgator.net/file/a91e014190ba3897e566d878332a3038/Ordinary.World.2016.720p.BluRay.x264-ROVERS.part5.rar.html
    


    BDRip 1080p
    Single Link
    
    http://nitroflare.com/view/ACF9D5EB2E808D5/Ordinary.World.2016.1080p.BluRay.x264-ROVERS.mkv
    


    900 MB Links
    
    http://nitroflare.com/view/FAC57056C5A8B23/Ordinary.World.2016.1080p.BluRay.x264-ROVERS.part1.rar
    http://nitroflare.com/view/02CC6828F61CDE0/Ordinary.World.2016.1080p.BluRay.x264-ROVERS.part2.rar
    http://nitroflare.com/view/7CD6EFC98B9F36E/Ordinary.World.2016.1080p.BluRay.x264-ROVERS.part3.rar
    http://nitroflare.com/view/21AC68945280C48/Ordinary.World.2016.1080p.BluRay.x264-ROVERS.part4.rar
    http://nitroflare.com/view/7E283DAB6CBBBED/Ordinary.World.2016.1080p.BluRay.x264-ROVERS.part5.rar
    http://nitroflare.com/view/A9CC4723AF82BDF/Ordinary.World.2016.1080p.BluRay.x264-ROVERS.part6.rar
    http://nitroflare.com/view/81069E4C40C1298/Ordinary.World.2016.1080p.BluRay.x264-ROVERS.part7.rar
    http://nitroflare.com/view/DEC21A2D629ED0F/Ordinary.World.2016.1080p.BluRay.x264-ROVERS.part8.rar
    

    
    http://uploaded.net/file/e1u8ejfe/Ordinary.World.2016.1080p.BluRay.x264-ROVERS.part1.rar
    http://uploaded.net/file/ywmvuih5/Ordinary.World.2016.1080p.BluRay.x264-ROVERS.part2.rar
    http://uploaded.net/file/6hi5i9vt/Ordinary.World.2016.1080p.BluRay.x264-ROVERS.part3.rar
    http://uploaded.net/file/2616qmq7/Ordinary.World.2016.1080p.BluRay.x264-ROVERS.part4.rar
    http://uploaded.net/file/dgt0azmi/Ordinary.World.2016.1080p.BluRay.x264-ROVERS.part5.rar
    http://uploaded.net/file/ps2o63ys/Ordinary.World.2016.1080p.BluRay.x264-ROVERS.part6.rar
    http://uploaded.net/file/a1uqavum/Ordinary.World.2016.1080p.BluRay.x264-ROVERS.part7.rar
    http://uploaded.net/file/onkcwb5s/Ordinary.World.2016.1080p.BluRay.x264-ROVERS.part8.rar
    

    
    https://rapidgator.net/file/a113c9628bd2803a5d8a9f0bfc35cce0/Ordinary.World.2016.1080p.BluRay.x264-ROVERS.part1.rar.html
    https://rapidgator.net/file/17deea84de217663660c9712c942ac45/Ordinary.World.2016.1080p.BluRay.x264-ROVERS.part2.rar.html
    https://rapidgator.net/file/ec8311a9d8d2b9615a0a1511492c9b9c/Ordinary.World.2016.1080p.BluRay.x264-ROVERS.part3.rar.html
    https://rapidgator.net/file/44c92c52e16b643672c033feb7d2e425/Ordinary.World.2016.1080p.BluRay.x264-ROVERS.part4.rar.html
    https://rapidgator.net/file/44479472d71c851cb42a463fb6e9ad8a/Ordinary.World.2016.1080p.BluRay.x264-ROVERS.part5.rar.html
    https://rapidgator.net/file/9d6c7e9efb55bee0deaaccefb4227fb9/Ordinary.World.2016.1080p.BluRay.x264-ROVERS.part6.rar.html
    https://rapidgator.net/file/c967dce8f883fa0bd060035aa7c832ad/Ordinary.World.2016.1080p.BluRay.x264-ROVERS.part7.rar.html
    https://rapidgator.net/file/45e42921267d8ad1e3689cbb960711c0/Ordinary.World.2016.1080p.BluRay.x264-ROVERS.part8.rar.html


    Free Full Download Ordinary World (2016) form MediaFire.com link RapidShare, Uploaded.to, Zippyshare, FileSonic, turbobit.net, ul.to, ORON, DepositFiles, rapidgator.net, letitbit.net, extabit.com, filefactory.com. Ordinary World (2016) Torrent Download with keygen, crack, serial, 1080p, hdrip, 720p, 2015, 2016
    Add comment
    Try to express their thoughts correctly and succinctly


Bryan Adams - Discography (1979-2015)
Bryan Adams - Discography 1979-2015 (28 Albums, 52CD+23 Singles) Genre: Rock ||
VA - Masterpieces of Chillout (2015)
Masterpieces of Chillout (2015) Label: Jizoom | Genre: Downtempo, Chillout,
Barrett Baber - The Complete Season 9 Collection (The Voice
Release Name: Barrett Baber - The Complete Season 9 Collection (The Voice
John Williams - Star Wars: The Force Awakens - Original Motion
John Williams - Star Wars: The Force Awakens - Original Motion Picture
Radiation Nation: Three Mile Island and the Political
Radiation Nation: Three Mile Island and the Political Transformation of the
Elements of Chemical Reaction Engineering, Fifth Edition
Elements of Chemical Reaction Engineering, Fifth Edition by H. Scott Fogler
The Entrepreneur Roller Coaster: Why Now Is the Time to
The Entrepreneur Roller Coaster: Why Now Is the Time to #JoinTheRide by Darren
The Compound Effect
The Compound Effect by Darren Hardy 2010 | ISBN: 1593157134, 159315724X |
DevExpress Universal 17.1.7 180224
DevExpress Universal 17.1.7 180224 DevExpress Universal 17.1.7 | 427.4 mb
Adobe Animate CC 2018 v18.0.0.107 macOS 180224
Adobe Animate CC 2018 v18.0.0.107 macOS 180224 Adobe Animate CC 2018
Adobe CC 2018 Collection For Mac 180224
Adobe CC 2018 Collection For Mac 180224 Adobe CC 2018 Collection For Mac |
Adobe Character Animator CC 2018 v1.1.0 Build 184 macOS 180224
Adobe Character Animator CC 2018 v1.1.0 Build 184 macOS 180224 Adobe
Abstract oil painting 1 - 5 UHQ JPEG
Abstract oil painting 1 - 5 UHQ JPEG 5 UHQ JPEG | 5760X3840 | 300 DPI | 28 MB
Juice and Fresh UHQ JPG
Juice and Fresh UHQ JPG 10 UHQ JPG | up to 8000x5323 Pixels | 102 Mb
Girl in abstraction - 6 UHQ JPEG
Girl in abstraction - 6 UHQ JPEG 6 UHQ JPEG | 5915X4212 | 300 DPI | 60 MB
Flyer Psd Template - Farmer Flyer Business
Flyer Psd Template - Farmer Flyer Business PSD | 1275x1875 PIX | fontinfo |

Download Torrents. Fast and Free Torrent Downloads.

Not Store Any File In Server. The Links Are Provided Solely By This Site's Users.

If You Have Any Doubts About Legality Of Content, Feel Free To Contact US.
© 2015 - 2016